微博 微信 APP

Hao4K影音

电影频道
电影封面:
片  名: 黑色星期五4k
电影分类: 恐怖 喜剧 
国  家: 美国 
年  代: 2021年
分 辨 率: 4K(3840x2160)
电影格式: MKV|REMUX 
画质标准: SDR 
音质编码: Dolby Digital Audio 
电影声道: 5.1声道 
帧数/FPS: 23.976 帧
电影语言: 英文原版 
资源大小: 7.18 GB
导  演: Casey Tebo
豆瓣评分:
中文字幕: /thread-64547-1-1.html
剧情简介:  A group of toy store employees must protect each other from a horde of parasite infected shoppers.
星期五鬼玩人/黑色星期五4k.Black.Friday.2021.2160p.WEB-DL.x265.10bit.SDR.DDP5.1-4k电影信息
  1. Video
  2. ID : 1
  3. Format : HEVC
  4. Format/Info : High Efficiency Video Coding
  5. Format profile : Main 10@L5@High
  6. Codec ID : V_MPEGH/ISO/HEVC
  7. Duration : 1 h 24 min
  8. Bit rate : 11.8 Mb/s
  9. Width : 3 836 pixels
  10. Height : 1 600 pixels
  11. Display aspect ratio : 2.40:1
  12. Original display aspect ratio : 2.40:1
  13. Frame rate mode : Constant
  14. Frame rate : 23.976 FPS
  15. Color space : YUV
  16. Chroma subsampling : 4:2:0
  17. Bit depth : 10 bits
  18. Bits/(Pixel*Frame) : 0.080
  19. Stream size : 6.95 GiB (97%)
  20. Language : English
  21. Default : Yes
  22. Forced : No
  23. Color range : Limited
  24. Color primaries : BT.709
  25. Transfer characteristics : BT.709
  26. Matrix coefficients : BT.709

  27. Audio
  28. ID : 2
  29. Format : AC-3
  30. Format/Info : Audio Coding 3
  31. Commercial name : Dolby Digital
  32. Codec ID : A_AC3
  33. Duration : 1 h 24 min
  34. Bit rate mode : Constant
  35. Bit rate : 384 kb/s
  36. Channel(s) : 6 channels
  37. Channel layout : L R C LFE Ls Rs
  38. Sampling rate : 48.0 kHz
  39. Frame rate : 31.250 FPS (1536 SPF)
  40. Compression mode : Lossy
  41. Stream size : 232 MiB (3%)
  42. Title : English
  43. Language : English
  44. Service kind : Complete Main
  45. Default : Yes
  46. Forced : No

  47. Text
  48. ID : 3
  49. Format : UTF-8
  50. Codec ID : S_TEXT/UTF8
  51. Codec ID/Info : UTF-8 Plain Text
  52. Duration : 1 h 18 min
  53. Bit rate : 53 b/s
  54. Count of elements : 1124
  55. Stream size : 30.9 KiB (0%)
  56. Language : English
  57. Default : Yes
  58. Forced : No
复制代码

星期五鬼玩人/黑色星期五4k.Black.Friday.2021.2160p.WEB-DL.x265.10bit.SDR.DDP5.1-4k电影下载

黑色星期五4k.Black.Friday.2021.2160p.WEB-DL.x265.10bit.SDR.DDP5.1【7.18 GB】
[Hao4k]黑色星期五4k.Black.Friday.2021.2160p.WEB-DL.x265.10bit.SDR.DDP5.1-NOGRP.torrent (18.58 KB, 售价: 2 个K币)
回复

使用道具 举报

   发表回复

您需要登录后才可以回帖 登录 | 立即注册

返回列表 本版积分规则

  • 发布新帖

  • 客服/帮助

  • 手机APP

  • 返回顶部