微博 微信 手机APP

Hao4K影音

Aquaman.2018.UHD双层杜比视界.双语7.1.特效字幕

21-11-23 15:52 2680 0 回帖奖励 |倒序浏览 |阅读模式

szc1hot 帖主

21-11-23 15:52

不是字幕!!!
不是字幕!!!
不是字幕!!!




带杜比视界MKV已制作完毕上传115

68.4G供大家测试,请反馈使用效果

Aquaman.2018.UHD双层杜比视界.双语7.1.特效字幕

https://115.com/s/swnel6m36bu?password=mce8&#访问码:mce8






General
Unique ID                                : 13672511844137253619262277188066672491 (0xA493AE11EC3FAC0392DB5470F52FF6B)
Complete name                            : E:\蓝光REMUX\Aquaman.2018.UHD双层杜比视界.双语7.1.特效字幕\Aquaman.2018.UHD双层杜比视界.双语7.1.特效字幕.mkv
Format                                   : Matroska
Format version                           : Version 4
File size                                : 68.4 GiB
Duration                                 : 2 h 23 min
Overall bit rate mode                    : Variable
Overall bit rate                         : 68.3 Mb/s
Movie name                               : Aquaman
Encoded date                             : UTC 2021-11-22 16:11:39
Writing application                      : mkvmerge v62.0.0 ('Apollo') 64-bit
Writing library                          : libebml v1.4.2 + libmatroska v1.6.4
Attachments                              : hwzs.ttf / FZZYJW.TTF / FZZhaoMFXSJF.TTF / FZPXJW.TTF / fzlzjt.TTF / fzjwtj.TTF / FZHLJW.TTF / FZHeiBJW.TTF / FZDiHTJ.TTF / fzcdxjt.TTF / cysjdlx.TTF / 宋体.ttc / 楷体.ttf / 华文楷体.ttf / 汉仪中楷简.ttf / 方正黑体简体.ttf / 方正黑体繁体.ttf / Times New Roman.ttf / tahoma.ttf / STXIHEI.TTF / papyrusletplain-1.0.ttf / msyhl.ttc / msyhbd.ttc / msyh.ttc

Video
ID                                       : 1
ID in the original source medium         : 4113 (0x1011)
Format                                   : HEVC
Format/Info                              : High Efficiency Video Coding
Format profile                           : Main 10@L5.1@High
HDR format                               : Dolby Vision, Version 1.0, dvhe.07.06, BL+EL+RPU, Blu-ray compatible / SMPTE ST 2086, HDR10 compatible
Codec ID                                 : V_MPEGH/ISO/HEVC
Duration                                 : 2 h 23 min
Bit rate                                 : 54.8 Mb/s
Width                                    : 3 840 pixels
Height                                   : 2 160 pixels
Display aspect ratio                     : 16:9
Frame rate mode                          : Constant
Frame rate                               : 23.976 (24000/1001) FPS
Color space                              : YUV
Chroma subsampling                       : 4:2:0 (Type 2)
Bit depth                                : 10 bits
Bits/(Pixel*Frame)                       : 0.276
Stream size                              : 54.9 GiB (80%)
Title                                    : V1.0
Language                                 : English
Default                                  : No
Forced                                   : No
Color range                              : Limited
Color primaries                          : BT.2020
Transfer characteristics                 : PQ
Matrix coefficients                      : BT.2020 non-constant
Mastering display color primaries        : Display P3
Mastering display luminance              : min: 0.0050 cd/m2, max: 4000 cd/m2
Maximum Content Light Level              : 1506 cd/m2
Maximum Frame-Average Light Level        : 459 cd/m2
Original source medium                   : Blu-ray

Audio #1
ID                                       : 2
Format                                   : DTS XLL
Format/Info                              : Digital Theater Systems
Commercial name                          : DTS-HD Master Audio
Codec ID                                 : A_DTS
Duration                                 : 2 h 23 min
Bit rate mode                            : Variable
Bit rate                                 : 4 962 kb/s
Channel(s)                               : 8 channels
Channel layout                           : C L R LFE Lb Rb Lss Rss
Sampling rate                            : 48.0 kHz
Frame rate                               : 93.750 FPS (512 SPF)
Bit depth                                : 24 bits
Compression mode                         : Lossless
Stream size                              : 4.97 GiB (7%)
Title                                    : 国配 DTS-MA 7.1
Language                                 : Chinese
Default                                  : Yes
Forced                                   : Yes

Audio #2
ID                                       : 3
ID in the original source medium         : 4360 (0x1108)
Format                                   : AC-3
Format/Info                              : Audio Coding 3
Commercial name                          : Dolby Digital
Codec ID                                 : A_AC3
Duration                                 : 2 h 23 min
Bit rate mode                            : Constant
Bit rate                                 : 448 kb/s
Channel(s)                               : 6 channels
Channel layout                           : L R C LFE Ls Rs
Sampling rate                            : 48.0 kHz
Frame rate                               : 31.250 FPS (1536 SPF)
Compression mode                         : Lossy
Stream size                              : 459 MiB (1%)
Title                                    : 国配 AC3 5.1
Language                                 : Chinese
Service kind                             : Complete Main
Default                                  : No
Forced                                   : No
Original source medium                   : Blu-ray

Audio #3
ID                                       : 4
ID in the original source medium         : 4352 (0x1100)
Format                                   : MLP FBA 16-ch
Format/Info                              : Meridian Lossless Packing FBA with 16-channel presentation
Commercial name                          : Dolby TrueHD with Dolby Atmos
Codec ID                                 : A_TRUEHD
Duration                                 : 2 h 23 min
Bit rate mode                            : Variable
Bit rate                                 : 3 579 kb/s
Maximum bit rate                         : 6 144 kb/s
Channel(s)                               : 8 channels
Channel layout                           : L R C LFE Ls Rs Lb Rb
Sampling rate                            : 48.0 kHz
Frame rate                               : 1 200.000 FPS (40 SPF)
Bit depth                                : 24 bits
Compression mode                         : Lossless
Stream size                              : 3.58 GiB (5%)
Title                                    : 英语 True-HD 7.1
Language                                 : English
Default                                  : No
Forced                                   : No
Original source medium                   : Blu-ray
Number of dynamic objects                : 15
Bed channel count                        : 1 channel
Bed channel configuration                : LFE

Audio #4
ID                                       : 5
ID in the original source medium         : 4353 (0x1101)
Format                                   : DTS XLL
Format/Info                              : Digital Theater Systems
Commercial name                          : DTS-HD Master Audio
Codec ID                                 : A_DTS
Duration                                 : 2 h 23 min
Bit rate mode                            : Variable
Bit rate                                 : 2 363 kb/s
Channel(s)                               : 6 channels
Channel layout                           : C L R Ls Rs LFE
Sampling rate                            : 48.0 kHz
Frame rate                               : 93.750 FPS (512 SPF)
Bit depth                                : 16 bits
Compression mode                         : Lossless
Stream size                              : 2.37 GiB (3%)
Title                                    : 英语 DTS-MA 7.1
Language                                 : English
Default                                  : No
Forced                                   : No
Original source medium                   : Blu-ray

Audio #5
ID                                       : 6
ID in the original source medium         : 4353 (0x1101)
Format                                   : DTS
Format/Info                              : Digital Theater Systems
Codec ID                                 : A_DTS
Duration                                 : 2 h 23 min
Bit rate mode                            : Constant
Bit rate                                 : 1 509 kb/s
Channel(s)                               : 6 channels
Channel layout                           : C L R Ls Rs LFE
Sampling rate                            : 48.0 kHz
Frame rate                               : 93.750 FPS (512 SPF)
Bit depth                                : 16 bits
Compression mode                         : Lossy
Stream size                              : 1.51 GiB (2%)
Title                                    : 英语 DTS 5.1
Language                                 : English
Default                                  : No
Forced                                   : No
Original source medium                   : Blu-ray

Audio #6
ID                                       : 7
ID in the original source medium         : 4352 (0x1100)
Format                                   : AC-3
Format/Info                              : Audio Coding 3
Commercial name                          : Dolby Digital
Format settings                          : Dolby Surround EX
Codec ID                                 : A_AC3
Duration                                 : 2 h 23 min
Bit rate mode                            : Constant
Bit rate                                 : 448 kb/s
Channel(s)                               : 6 channels
Channel layout                           : L R C LFE Ls Rs
Sampling rate                            : 48.0 kHz
Frame rate                               : 31.250 FPS (1536 SPF)
Compression mode                         : Lossy
Stream size                              : 459 MiB (1%)
Title                                    : 英语 AC3 5.1
Language                                 : English
Service kind                             : Complete Main
Default                                  : No
Forced                                   : No
Original source medium                   : Blu-ray

Text
ID                                       : 8
Format                                   : ASS
Codec ID                                 : S_TEXT/ASS
Codec ID/Info                            : Advanced Sub Station Alpha
Duration                                 : 2 h 14 min
Bit rate                                 : 151 b/s
Count of elements                        : 1200
Compression mode                         : Lossless
Stream size                              : 149 KiB (0%)
Title                                    : 中文 ASS
Language                                 : Chinese
Default                                  : Yes
Forced                                   : Yes


回复

使用道具 举报

   发表回复

您需要登录后才可以回帖 登录 | 立即注册

返回列表 本版积分规则

:
青铜玩家
:
未填写

主题

帖子

积分789

  • 发布新帖

  • 客服/帮助

  • 手机APP

  • 返回顶部