微博 微信 APP

Hao4K影音

电影频道
电影封面:
片  名: 复仇之渊4k
电影分类: 剧情 西部 
国  家: 美国 
年  代: 2021年
分 辨 率: 4K(3840x2160)
电影格式: MKV|REMUX 
画质标准: HDR Dolby Vision 
音质编码: Dolby Digital Plus Audio 
电影声道: 其他 
帧数/FPS: 24.000 帧
电影语言: 英文原版 
资源大小: 17.4 GB
导  演: 杰姆斯·塞缪尔
豆瓣评分: 6.0 分
中文字幕: -
剧情简介: 不法之徒纳特·洛夫(乔纳森·梅杰斯饰)发现他的敌人鲁弗斯·巴克(伊德里斯·艾尔巴饰)从监狱里被放了出来,于是他召集自己的团伙向鲁弗斯展开了复仇行动。在这部别出心裁的西部片中,与纳特同行的还有他的前女友斯特奇科奇·马里(莎姬·贝兹饰),他的左膀右臂、脾气火爆的比尔·皮克特(艾迪·盖瑟吉饰),快枪手吉姆·贝克沃思(RJ·赛勒饰),以及一位从对立阵营转来的、意想不到的盟友。鲁弗斯·巴克也有一支令人闻风丧胆的团队,成员包括“叛逆者”特鲁迪·史密斯(雷吉娜·金饰)和切罗基·比尔(勒凯斯·斯坦菲尔德饰),他们绝不会束手就擒。
野心难拒/复仇之渊4k.The.Harder.They.Fall.2021.iTA-ENG.Bluray.2160p.HDR.x265-4k杜比视界电影信息
  1. Video
  2. ID : 1
  3. Format : HEVC
  4. Format/Info : High Efficiency Video Coding
  5. Format profile : Main [email protected]@Main
  6. HDR format : Dolby Vision, Version 1.0, dvhe.08.06, BL+RPU, HDR10 compatible / SMPTE ST 2086, HDR10 compatible
  7. Codec ID : V_MPEGH/ISO/HEVC
  8. Duration : 2 h 16 min
  9. Bit rate : 15.3 Mb/s
  10. Width : 3 840 pixels
  11. Height : 2 160 pixels
  12. Display aspect ratio : 16:9
  13. Frame rate mode : Constant
  14. Frame rate : 24.000 FPS
  15. Color space : YUV
  16. Chroma subsampling : 4:2:0 (Type 2)
  17. Bit depth : 10 bits
  18. Bits/(Pixel*Frame) : 0.077
  19. Stream size : 14.7 GiB (84%)
  20. Title : 2160p
  21. Language : English
  22. Default : Yes
  23. Forced : No
  24. Color range : Limited
  25. Color primaries : BT.2020
  26. Transfer characteristics : PQ
  27. Matrix coefficients : BT.2020 non-constant
  28. Mastering display color primaries : Display P3
  29. Mastering display luminance : min: 0.0001 cd/m2, max: 1000 cd/m2
  30. Maximum Content Light Level : 756 cd/m2
  31. Maximum Frame-Average Light Level : 419 cd/m2

  32. Audio #1
  33. ID : 2
  34. Format : E-AC-3 JOC
  35. Format/Info : Enhanced AC-3 with Joint Object Coding
  36. Commercial name : Dolby Digital Plus with Dolby Atmos
  37. Codec ID : A_EAC3
  38. Duration : 2 h 19 min
  39. Bit rate mode : Constant
  40. Bit rate : 768 kb/s
  41. Channel(s) : 6 channels
  42. Channel layout : L R C LFE Ls Rs
  43. Sampling rate : 48.0 kHz
  44. Frame rate : 31.250 FPS (1536 SPF)
  45. Compression mode : Lossy
  46. Stream size : 764 MiB (4%)
  47. Title : E-AC3
  48. Language : Italian
  49. Service kind : Complete Main
  50. Default : Yes
  51. Forced : No
  52. Complexity index : 16
  53. Number of dynamic objects : 15
  54. Bed channel count : 1 channel
  55. Bed channel configuration : LFE

  56. Audio #2
  57. ID : 3
  58. Format : AC-3
  59. Format/Info : Audio Coding 3
  60. Commercial name : Dolby Digital
  61. Codec ID : A_AC3
  62. Duration : 2 h 19 min
  63. Bit rate mode : Constant
  64. Bit rate : 640 kb/s
  65. Channel(s) : 6 channels
  66. Channel layout : L R C LFE Ls Rs
  67. Sampling rate : 48.0 kHz
  68. Frame rate : 31.250 FPS (1536 SPF)
  69. Compression mode : Lossy
  70. Stream size : 637 MiB (4%)
  71. Title : AC3
  72. Language : Italian
  73. Service kind : Complete Main
  74. Default : Yes
  75. Forced : No

  76. Audio #3
  77. ID : 4
  78. Format : E-AC-3 JOC
  79. Format/Info : Enhanced AC-3 with Joint Object Coding
  80. Commercial name : Dolby Digital Plus with Dolby Atmos
  81. Codec ID : A_EAC3
  82. Duration : 2 h 19 min
  83. Bit rate mode : Constant
  84. Bit rate : 768 kb/s
  85. Channel(s) : 6 channels
  86. Channel layout : L R C LFE Ls Rs
  87. Sampling rate : 48.0 kHz
  88. Frame rate : 31.250 FPS (1536 SPF)
  89. Compression mode : Lossy
  90. Stream size : 764 MiB (4%)
  91. Title : E-AC3
  92. Language : English
  93. Service kind : Complete Main
  94. Default : Yes
  95. Forced : No
  96. Complexity index : 16
  97. Number of dynamic objects : 15
  98. Bed channel count : 1 channel
  99. Bed channel configuration : LFE

  100. Audio #4
  101. ID : 5
  102. Format : AC-3
  103. Format/Info : Audio Coding 3
  104. Commercial name : Dolby Digital
  105. Codec ID : A_AC3
  106. Duration : 2 h 19 min
  107. Bit rate mode : Constant
  108. Bit rate : 640 kb/s
  109. Channel(s) : 6 channels
  110. Channel layout : L R C LFE Ls Rs
  111. Sampling rate : 48.0 kHz
  112. Frame rate : 31.250 FPS (1536 SPF)
  113. Compression mode : Lossy
  114. Stream size : 637 MiB (4%)
  115. Title : AC3
  116. Language : English
  117. Service kind : Complete Main
  118. Default : Yes
  119. Forced : No

  120. Text #1
  121. ID : 6
  122. Format : UTF-8
  123. Codec ID : S_TEXT/UTF8
  124. Codec ID/Info : UTF-8 Plain Text
  125. Duration : 2 h 16 min
  126. Bit rate : 0 b/s
  127. Count of elements : 17
  128. Stream size : 507 Bytes (0%)
  129. Title : Forced
  130. Language : Italian
  131. Default : No
  132. Forced : Yes

  133. Text #2
  134. ID : 7
  135. Format : UTF-8
  136. Codec ID : S_TEXT/UTF8
  137. Codec ID/Info : UTF-8 Plain Text
  138. Duration : 2 h 16 min
  139. Bit rate : 32 b/s
  140. Count of elements : 1127
  141. Stream size : 32.5 KiB (0%)
  142. Title : Regular
  143. Language : Italian
  144. Default : No
  145. Forced : No

  146. Text #3
  147. ID : 8
  148. Format : UTF-8
  149. Codec ID : S_TEXT/UTF8
  150. Codec ID/Info : UTF-8 Plain Text
  151. Duration : 1 h 49 min
  152. Bit rate : 0 b/s
  153. Count of elements : 5
  154. Stream size : 174 Bytes (0%)
  155. Title : Forced
  156. Language : English
  157. Default : No
  158. Forced : No

  159. Text #4
  160. ID : 9
  161. Format : UTF-8
  162. Codec ID : S_TEXT/UTF8
  163. Codec ID/Info : UTF-8 Plain Text
  164. Duration : 2 h 16 min
  165. Bit rate : 55 b/s
  166. Count of elements : 1828
  167. Stream size : 55.1 KiB (0%)
  168. Title : Non Udenti
  169. Language : English
  170. Default : No
  171. Forced : No
复制代码

野心难拒/复仇之渊4k.The.Harder.They.Fall.2021.iTA-ENG.Bluray.2160p.HDR.x265-4k杜比视界电影下载

复仇之渊4k.The.Harder.They.Fall.2021.iTA-ENG.Bluray.2160p.HDR.x265【17.4 GB】
复仇之渊.txt (100 Bytes)
回复

使用道具 举报

全部回复3

bbgrnnji 21-11-25 08:51 显示全部楼层

bbgrnnji 2

21-11-25 08:51

我还以为又是老片子
回复 支持 1 反对 0

使用道具 举报

18520199909 3

21-12-1 19:40

挺好看的西部片
回复 支持 反对

使用道具 举报

s000 21-12-3 00:19 显示全部楼层

s000 4

21-12-3 00:19

漂亮国也开始政治正确了
回复 支持 反对

使用道具 举报

   发表回复

您需要登录后才可以回帖 登录 | 立即注册

返回列表 本版积分规则

  • 发布新帖

  • 客服/帮助

  • 手机APP

  • 返回顶部