微博 微信 APP

Hao4K影音

电影频道
电影封面:
片  名: 红色通缉令4k
电影分类: 动作 犯罪 惊悚 喜剧 
国  家: 美国 
年  代: 2021年
分 辨 率: 4K(3840x2160)
电影格式: MKV|REMUX 
画质标准: HDR 
音质编码: Dolby Digital Plus Audio 
电影声道: 其他 
帧数/FPS: 24.000 帧
电影语言: 英文原版 
资源大小: 15 GB
导  演: 罗森·马歇尔·瑟伯
豆瓣评分: 6.3 分
中文字幕: /thread-65083-1-1.html
剧情简介: 当国际刑警发布的红色通缉令(追捕世界头号通缉犯的最高级别通缉令)出炉时,联邦调查局的顶尖犯罪侧写师约翰·哈特利(道恩·强森饰)正在调查此案。在调查一起大胆的抢劫案中,约翰陷入了困境,被迫与世界头号艺术品大盗诺兰·布斯(瑞安·雷诺兹饰)合作,以抓捕世界头号通缉的艺术品窃贼“主教”(盖尔·加朵饰)。激动人心的冒险之旅将带领三人环游世界,他们的经历包括穿过舞池、被困在一个隐蔽的监狱、进入丛林,最糟糕的是,他们彼此间的默契不断增加。里图·阿亚和克里斯·迪亚曼托波洛斯加入了全明星阵容。《红色通缉令》由罗森·马歇尔·瑟伯(《乌龙特工》和《摩天营救》)担任导演和编剧,制片人团队包括 Seven Bucks Productions 的海拉姆·加西亚、道恩·强森和丹妮·加西亚,Flynn Picture Co. 的比尤·弗林,以及 Bad Version, Inc. 的瑟伯,该片是一部紧跟潮流的全球猫捉老鼠(还有猫)游戏。
红色大贱谍/红色通缉令4k.Red.Noticie.2021.iTA-ENG.Bluray.2160p.HDR.x265-4k电影信息
  1. Video
  2. ID : 1
  3. Format : HEVC
  4. Format/Info : High Efficiency Video Coding
  5. Format profile : Main [email protected]@Main
  6. HDR format : SMPTE ST 2086, HDR10 compatible
  7. Codec ID : V_MPEGH/ISO/HEVC
  8. Duration : 1 h 55 min
  9. Bit rate : 15.7 Mb/s
  10. Width : 3 840 pixels
  11. Height : 2 160 pixels
  12. Display aspect ratio : 16:9
  13. Frame rate mode : Constant
  14. Frame rate : 24.000 FPS
  15. Color space : YUV
  16. Chroma subsampling : 4:2:0 (Type 2)
  17. Bit depth : 10 bits
  18. Bits/(Pixel*Frame) : 0.079
  19. Stream size : 12.7 GiB (85%)
  20. Title : 2160p
  21. Language : English
  22. Default : Yes
  23. Forced : No
  24. Color range : Limited
  25. Color primaries : BT.2020
  26. Transfer characteristics : PQ
  27. Matrix coefficients : BT.2020 non-constant
  28. Mastering display color primaries : Display P3
  29. Mastering display luminance : min: 0.0001 cd/m2, max: 1000 cd/m2
  30. Maximum Content Light Level : 756 cd/m2
  31. Maximum Frame-Average Light Level : 308 cd/m2

  32. Audio #1
  33. ID : 2
  34. Format : E-AC-3 JOC
  35. Format/Info : Enhanced AC-3 with Joint Object Coding
  36. Commercial name : Dolby Digital Plus with Dolby Atmos
  37. Codec ID : A_EAC3
  38. Duration : 1 h 57 min
  39. Bit rate mode : Constant
  40. Bit rate : 768 kb/s
  41. Channel(s) : 6 channels
  42. Channel layout : L R C LFE Ls Rs
  43. Sampling rate : 48.0 kHz
  44. Frame rate : 31.250 FPS (1536 SPF)
  45. Compression mode : Lossy
  46. Stream size : 648 MiB (4%)
  47. Title : E-AC3
  48. Language : Italian
  49. Service kind : Complete Main
  50. Default : Yes
  51. Forced : No
  52. Complexity index : 16
  53. Number of dynamic objects : 15
  54. Bed channel count : 1 channel
  55. Bed channel configuration : LFE

  56. Audio #2
  57. ID : 3
  58. Format : AC-3
  59. Format/Info : Audio Coding 3
  60. Commercial name : Dolby Digital
  61. Codec ID : A_AC3
  62. Duration : 1 h 57 min
  63. Bit rate mode : Constant
  64. Bit rate : 640 kb/s
  65. Channel(s) : 6 channels
  66. Channel layout : L R C LFE Ls Rs
  67. Sampling rate : 48.0 kHz
  68. Frame rate : 31.250 FPS (1536 SPF)
  69. Compression mode : Lossy
  70. Stream size : 540 MiB (4%)
  71. Title : ACC3
  72. Language : Italian
  73. Service kind : Complete Main
  74. Default : Yes
  75. Forced : No

  76. Audio #3
  77. ID : 4
  78. Format : E-AC-3 JOC
  79. Format/Info : Enhanced AC-3 with Joint Object Coding
  80. Commercial name : Dolby Digital Plus with Dolby Atmos
  81. Codec ID : A_EAC3
  82. Duration : 1 h 57 min
  83. Bit rate mode : Constant
  84. Bit rate : 768 kb/s
  85. Channel(s) : 6 channels
  86. Channel layout : L R C LFE Ls Rs
  87. Sampling rate : 48.0 kHz
  88. Frame rate : 31.250 FPS (1536 SPF)
  89. Compression mode : Lossy
  90. Stream size : 648 MiB (4%)
  91. Title : E-AC3
  92. Language : English
  93. Service kind : Complete Main
  94. Default : Yes
  95. Forced : No
  96. Complexity index : 16
  97. Number of dynamic objects : 15
  98. Bed channel count : 1 channel
  99. Bed channel configuration : LFE

  100. Audio #4
  101. ID : 5
  102. Format : AC-3
  103. Format/Info : Audio Coding 3
  104. Commercial name : Dolby Digital
  105. Codec ID : A_AC3
  106. Duration : 1 h 57 min
  107. Bit rate mode : Constant
  108. Bit rate : 640 kb/s
  109. Channel(s) : 6 channels
  110. Channel layout : L R C LFE Ls Rs
  111. Sampling rate : 48.0 kHz
  112. Frame rate : 31.250 FPS (1536 SPF)
  113. Compression mode : Lossy
  114. Stream size : 540 MiB (4%)
  115. Title : AC3
  116. Language : English
  117. Service kind : Complete Main
  118. Default : Yes
  119. Forced : No

  120. Text #1
  121. ID : 6
  122. Format : UTF-8
  123. Codec ID : S_TEXT/UTF8
  124. Codec ID/Info : UTF-8 Plain Text
  125. Duration : 1 h 55 min
  126. Bit rate : 1 b/s
  127. Count of elements : 46
  128. Stream size : 1.05 KiB (0%)
  129. Title : Forced
  130. Language : Italian
  131. Default : No
  132. Forced : Yes

  133. Text #2
  134. ID : 7
  135. Format : UTF-8
  136. Codec ID : S_TEXT/UTF8
  137. Codec ID/Info : UTF-8 Plain Text
  138. Duration : 1 h 55 min
  139. Bit rate : 49 b/s
  140. Count of elements : 1324
  141. Stream size : 42.0 KiB (0%)
  142. Title : Regular
  143. Language : Italian
  144. Default : No
  145. Forced : No

  146. Text #3
  147. ID : 8
  148. Format : UTF-8
  149. Codec ID : S_TEXT/UTF8
  150. Codec ID/Info : UTF-8 Plain Text
  151. Duration : 1 h 54 min
  152. Bit rate : 68 b/s
  153. Count of elements : 1718
  154. Stream size : 57.6 KiB (0%)
  155. Title : Non Udenti
  156. Language : English
  157. Default : No
  158. Forced : No

  159. Text #4
  160. ID : 9
  161. Format : UTF-8
  162. Codec ID : S_TEXT/UTF8
  163. Codec ID/Info : UTF-8 Plain Text
  164. Duration : 1 h 38 min
  165. Bit rate : 1 b/s
  166. Count of elements : 33
  167. Stream size : 816 Bytes (0%)
  168. Title : Forced
  169. Language : English
  170. Default : No
  171. Forced : No
复制代码

红色大贱谍/红色通缉令4k.Red.Noticie.2021.iTA-ENG.Bluray.2160p.HDR.x265-4k电影下载

红色通缉令4k.Red.Noticie.2021.iTA-ENG.Bluray.2160p.HDR.x265【4k HDR 15GB】
红色通缉令.txt (102 Bytes)
回复

使用道具 举报

全部回复14

lianxi68 21-11-25 07:47 显示全部楼层

lianxi68 2

21-11-25 07:47

终于有了,谢谢分享。
回复 支持 反对

使用道具 举报

faraway1116 3

21-11-25 12:17

谢谢分享
回复 支持 1 反对 0

使用道具 举报

cw_6807 21-11-25 12:41 显示全部楼层

cw_6807 4

21-11-25 12:41

没有字幕
回复 支持 反对

使用道具 举报

刘刘野 21-11-26 02:38 显示全部楼层

刘刘野 5

21-11-26 02:38

终于等到4K版了,谢谢分享
回复 支持 反对

使用道具 举报

Sophist 21-11-26 17:07 显示全部楼层

Sophist 6

21-11-26 17:07

标题打错了,是Red Notice,不是Red Noticie
回复 支持 反对

使用道具 举报

bbgrnnji 21-11-27 09:56 显示全部楼层

bbgrnnji 7

21-11-27 09:56

先看了再说
回复 支持 反对

使用道具 举报

66孔子 21-11-27 16:37 显示全部楼层

66孔子 8

21-11-27 16:37

辛苦楼主分享
回复 支持 反对

使用道具 举报

cual 21-11-29 09:24 显示全部楼层

cual 9

21-11-29 09:24

下了再说,谢谢分享
回复 支持 反对

使用道具 举报

ch98 21-11-29 20:15 显示全部楼层

ch98 10

21-11-29 20:15

谢谢分享。。
回复 支持 反对

使用道具 举报

csfl007 21-11-29 21:35 显示全部楼层

csfl007 11

21-11-29 21:35

电影有了,就差字幕了。冲这3个主演,这电影应该不错。
回复 支持 反对

使用道具 举报

5ibelieve 12

21-12-1 09:03

谢谢分享!
回复 支持 反对

使用道具 举报

xhl079669 13

21-12-1 18:04

谢谢分享,下载了。。。。
回复 支持 反对

使用道具 举报

第五次路过 14

21-12-2 15:00


谢谢分享,下载了。。。
回复 支持 反对

使用道具 举报

ronini 21-12-3 10:57 显示全部楼层

ronini 15

21-12-3 10:57

终于有4K版了,谢谢分享
回复 支持 反对

使用道具 举报

   发表回复

您需要登录后才可以回帖 登录 | 立即注册

返回列表 本版积分规则

  • 发布新帖

  • 客服/帮助

  • 手机APP

  • 返回顶部