微博 微信 APP

Hao4K影音

电影频道
电影封面:
片  名: 八比特圣诞4k
电影分类: 喜剧 
国  家: 美国 
年  代: 2021年
分 辨 率: 4K(3840x2160)
电影格式: MKV|REMUX 
画质标准: HDR 
音质编码: Dolby Digital Plus Audio 
电影声道: 其他 
帧数/FPS: 23.976 帧
电影语言: 英文原版 
资源大小: 12.90 GB
导  演: 迈克尔·道斯
豆瓣评分:
中文字幕: -
剧情简介: 新线影业开发的喜剧片[八比特圣诞](8-Bit Christmas,暂译)已经开拍。影片由尼尔·帕特里克·哈里斯、温斯洛·费格雷、琼·黛安·拉斐尔、斯蒂夫·扎恩主演,迈克尔·道斯([冰球坏小子])执导,凯文·雅库波斯基操刀剧本。
  该片根据凯文·雅库波斯基撰写的同名小说改编,故事以20世纪80年代末的芝加哥郊区为背景,讲述了10岁的杰克·多伊尔(费格雷饰)为了得到最好、最新的圣诞电子游戏开始艰难的挑战。哈里斯扮演成年后的杰克·多伊尔,同时也担任该片旁白。拉斐尔和扎恩饰演杰克·多伊尔小时候的父母凯西和约翰
8-Bit Christmas/八比特圣诞4k.8-Bit.Christmas.2021.HDR.2160p.WEB.h265-4k电影信息
  1. Video
  2. ID : 1
  3. Format : HEVC
  4. Format/Info : High Efficiency Video Coding
  5. Format profile : Main 10@L5@Main
  6. HDR format : SMPTE ST 2086, HDR10 compatible
  7. Codec ID : V_MPEGH/ISO/HEVC
  8. Duration : 1 h 37 min
  9. Bit rate : 17.9 Mb/s
  10. Width : 3 840 pixels
  11. Height : 2 160 pixels
  12. Display aspect ratio : 16:9
  13. Frame rate mode : Constant
  14. Frame rate : 23.976 (24000/1001) FPS
  15. Color space : YUV
  16. Chroma subsampling : 4:2:0
  17. Bit depth : 10 bits
  18. Bits/(Pixel*Frame) : 0.090
  19. Stream size : 12.2 GiB (96%)
  20. Writing library : x265 3.4hy:[Linux][GCC 7.5.0][64 bit] 10bit
  21. Encoding settings : cpuid=1111039 / frame-threads=1 / wpp / no-pmode / no-pme / no-psnr / no-ssim / log-level=2 / input-csp=1 / input-res=3840x2160 / interlace=0 / total-frames=0 / level-idc=0 / high-tier=1 / uhd-bd=0 / ref=4 / no-allow-non-conformance / repeat-headers / annexb / no-aud / no-hrd / info / hash=0 / no-temporal-layers / no-open-gop / min-keyint=96 / keyint=96 / gop-lookahead=0 / bframes=3 / b-adapt=2 / b-pyramid / bframe-bias=0 / rc-lookahead=25 / lookahead-slices=4 / scenecut=40 / hist-scenecut=0 / radl=0 / no-splice / no-intra-refresh / ctu=64 / min-cu-size=8 / rect / no-amp / max-tu-size=32 / tu-inter-depth=1 / tu-intra-depth=1 / limit-tu=0 / rdoq-level=2 / dynamic-rd=0.00 / no-ssim-rd / signhide / no-tskip / nr-intra=0 / nr-inter=0 / no-constrained-intra / strong-intra-smoothing / max-merge=3 / limit-refs=3 / limit-modes / me=3 / subme=3 / merange=57 / temporal-mvp / no-frame-dup / no-hme / weightp / no-weightb / no-analyze-src-pics / deblock=0:0 / sao / no-sao-non-deblock / rd=4 / selective-sao=4 / no-early-skip / rskip / no-fast-intra / no-tskip-fast / no-cu-lossless / no-b-intra / no-splitrd-skip / rdpenalty=0 / psy-rd=2.00 / psy-rdoq=1.00 / no-rd-refine / no-lossless / cbqpoffs=0 / crqpoffs=0 / rc=abr / bitrate=18000 / qcomp=0.60 / qpstep=4 / stats-write=0 / stats-read=2 / cplxblur=20.0 / qblur=0.5 / vbv-maxrate=24500 / vbv-bufsize=24500 / vbv-init=0.6 / vbv-end=0.6 / vbv-end-fr-adj=0.0 / ipratio=1.40 / pbratio=1.30 / aq-mode=2 / aq-strength=1.00 / cutree / zone-count=0 / no-strict-cbr / qg-size=32 / no-rc-grain / qpmax=69 / qpmin=0 / no-const-vbv / sar=0 / overscan=0 / videoformat=5 / range=0 / colorprim=9 / transfer=16 / colormatrix=9 / chromaloc=0 / display-window=0 / master-display=G(13250,34500)B(7500,3000)R(34000,16000)WP(15635,16450)L(10000000,1) / cll=215,106 / min-luma=0 / max-luma=1023 / log2-max-poc-lsb=8 / vui-timing-info / vui-hrd-info / no-concatenation / slices=1 / no-opt-qp-pps / no-opt-ref-list-length-pps / no-multi-pass-opt-rps / scenecut-bias=0.05 / hist-threshold=0.01 / no-opt-cu-delta-qp / no-aq-motion / hdr10 / no-hdr10-opt / no-dhdr10-opt / no-idr-recovery-sei / analysis-reuse-level=0 / analysis-save-reuse-level=0 / analysis-load-reuse-level=0 / scale-factor=0 / refine-intra=0 / refine-inter=0 / refine-mv=1 / refine-ctu-distortion=0 / no-limit-sao / ctu-info=0 / no-lowpass-dct / refine-analysis-type=0 / copy-pic=1 / max-ausize-factor=1.0 / no-dynamic-refine / no-single-sei / no-hevc-aq / no-svt / no-field / qp-adaptation-range=1.00 / no-scenecut-aware-qpconformance-window-offsets / right=0 / bottom=0 / decoder-max-rate=0
  22. Language : English
  23. Default : Yes
  24. Forced : No
  25. Color range : Limited
  26. Color primaries : BT.2020
  27. Transfer characteristics : PQ
  28. Matrix coefficients : BT.2020 non-constant
  29. Mastering display color primaries : Display P3
  30. Mastering display luminance : min: 0.0001 cd/m2, max: 1000 cd/m2
  31. Maximum Content Light Level : 215 cd/m2
  32. Maximum Frame-Average Light Level : 106 cd/m2

  33. Audio
  34. ID : 2
  35. Format : E-AC-3 JOC
  36. Format/Info : Enhanced AC-3 with Joint Object Coding
  37. Commercial name : Dolby Digital Plus with Dolby Atmos
  38. Codec ID : A_EAC3
  39. Duration : 1 h 37 min
  40. Bit rate mode : Constant
  41. Bit rate : 768 kb/s
  42. Channel(s) : 6 channels
  43. Channel layout : L R C LFE Ls Rs
  44. Sampling rate : 48.0 kHz
  45. Frame rate : 31.250 FPS (1536 SPF)
  46. Compression mode : Lossy
  47. Stream size : 537 MiB (4%)
  48. Language : English
  49. Service kind : Complete Main
  50. Default : Yes
  51. Forced : No
  52. Complexity index : 16
  53. Number of dynamic objects : 15
  54. Bed channel count : 1 channel
  55. Bed channel configuration : LFE

  56. Text #1
  57. ID : 3
  58. Format : UTF-8
  59. Codec ID : S_TEXT/UTF8
  60. Codec ID/Info : UTF-8 Plain Text
  61. Duration : 1 h 32 min
  62. Bit rate : 85 b/s
  63. Count of elements : 1934
  64. Stream size : 58.0 KiB (0%)
  65. Title : Danish
  66. Language : Danish
  67. Default : No
  68. Forced : No

  69. Text #2
  70. ID : 4
  71. Format : UTF-8
  72. Codec ID : S_TEXT/UTF8
  73. Codec ID/Info : UTF-8 Plain Text
  74. Duration : 1 h 31 min
  75. Bit rate : 96 b/s
  76. Count of elements : 2050
  77. Stream size : 65.1 KiB (0%)
  78. Title : English [CC]
  79. Language : English
  80. Default : No
  81. Forced : No

  82. Text #3
  83. ID : 5
  84. Format : UTF-8
  85. Codec ID : S_TEXT/UTF8
  86. Codec ID/Info : UTF-8 Plain Text
  87. Duration : 1 h 33 min
  88. Bit rate : 95 b/s
  89. Count of elements : 2388
  90. Stream size : 65.4 KiB (0%)
  91. Title : European Spanish [CC]
  92. Language : Spanish
  93. Default : No
  94. Forced : No

  95. Text #4
  96. ID : 6
  97. Format : UTF-8
  98. Codec ID : S_TEXT/UTF8
  99. Codec ID/Info : UTF-8 Plain Text
  100. Duration : 1 h 33 min
  101. Bit rate : 95 b/s
  102. Count of elements : 2388
  103. Stream size : 65.4 KiB (0%)
  104. Title : European Spanish
  105. Language : Spanish
  106. Default : No
  107. Forced : No

  108. Text #5
  109. ID : 7
  110. Format : UTF-8
  111. Codec ID : S_TEXT/UTF8
  112. Codec ID/Info : UTF-8 Plain Text
  113. Duration : 1 h 33 min
  114. Bit rate : 87 b/s
  115. Count of elements : 1795
  116. Stream size : 59.7 KiB (0%)
  117. Title : European Spanish
  118. Language : Spanish
  119. Default : No
  120. Forced : No

  121. Text #6
  122. ID : 8
  123. Format : UTF-8
  124. Codec ID : S_TEXT/UTF8
  125. Codec ID/Info : UTF-8 Plain Text
  126. Duration : 1 h 37 min
  127. Bit rate : 67 b/s
  128. Count of elements : 1935
  129. Stream size : 48.4 KiB (0%)
  130. Title : Finish
  131. Language : Finnish
  132. Default : No
  133. Forced : No

  134. Text #7
  135. ID : 9
  136. Format : UTF-8
  137. Codec ID : S_TEXT/UTF8
  138. Codec ID/Info : UTF-8 Plain Text
  139. Duration : 1 h 32 min
  140. Bit rate : 80 b/s
  141. Count of elements : 1933
  142. Stream size : 54.3 KiB (0%)
  143. Title : Norwegian
  144. Language : Norwegian
  145. Default : No
  146. Forced : No

  147. Text #8
  148. ID : 10
  149. Format : UTF-8
  150. Codec ID : S_TEXT/UTF8
  151. Codec ID/Info : UTF-8 Plain Text
  152. Duration : 1 h 37 min
  153. Bit rate : 79 b/s
  154. Count of elements : 1937
  155. Stream size : 56.8 KiB (0%)
  156. Title : Brazilian Portuguese
  157. Language : Portuguese
  158. Default : No
  159. Forced : No

  160. Text #9
  161. ID : 11
  162. Format : UTF-8
  163. Codec ID : S_TEXT/UTF8
  164. Codec ID/Info : UTF-8 Plain Text
  165. Duration : 1 h 37 min
  166. Bit rate : 80 b/s
  167. Count of elements : 1925
  168. Stream size : 57.7 KiB (0%)
  169. Title : Swedish
  170. Language : Swedish
  171. Default : No
  172. Forced : No
复制代码

8-Bit Christmas/八比特圣诞4k.8-Bit.Christmas.2021.HDR.2160p.WEB.h265-4k电影下载

八比特圣诞4k.8-Bit.Christmas.2021.2160p.HMAX.WEB-DL.DDP5.1.Atmos.DV.MP4.x265【4k 杜比视界 12.78 GB】
[Hao4k]八比特圣诞4k.8-Bit.Christmas.2021.2160p.HMAX.WEB-DL.DDP5.1.Atmos.DV.MP4.x265-DVSUX.torrent (16.63 KB)
回复

使用道具 举报

   发表回复

您需要登录后才可以回帖 登录 | 立即注册

返回列表 本版积分规则

  • 发布新帖

  • 客服/帮助

  • 手机APP

  • 返回顶部