微博 微信 手机APP

Hao4K影音

电影频道
电影封面:
片  名: 人类4K
电影分类: 剧情 
国  家: 美国 
年  代: 2021年
分 辨 率: 4K(3840x2160)
电影格式: MKV|REMUX 
画质标准: HDR 
音质编码: Dolby Digital Plus Audio 
电影声道: 5.1声道 
帧数/FPS: 23.976 帧
电影语言: 英文原版 
资源大小: 11.15 GB
导  演: 斯蒂芬·卡勒姆
豆瓣评分:
中文字幕: thread-64645-1-1.html
剧情简介: Set inside a pre-war duplex in downtown Manhattan, The Humans follows the course of an evening in which the Blake family gathers to celebrate Thanksgiving. As darkness falls outside the crumbling building, mysterious things start to go bump in the night and family tensions reach a boiling point
人类4K.The.Humans.2021.2160p.WEB-DL.x265.10bit.HDR.DDP5.1-4k电影信息
  1. Video
  2. ID : 1
  3. Format : HEVC
  4. Format/Info : High Efficiency Video Coding
  5. Format profile : Main 10@L5@High
  6. HDR format : SMPTE ST 2086, HDR10 compatible
  7. Codec ID : V_MPEGH/ISO/HEVC
  8. Duration : 1 h 46 min
  9. Bit rate : 14.3 Mb/s
  10. Width : 3 840 pixels
  11. Height : 2 160 pixels
  12. Display aspect ratio : 16:9
  13. Frame rate mode : Constant
  14. Frame rate : 23.976 FPS
  15. Color space : YUV
  16. Chroma subsampling : 4:2:0 (Type 2)
  17. Bit depth : 10 bits
  18. Bits/(Pixel*Frame) : 0.072
  19. Stream size : 10.7 GiB (96%)
  20. Default : Yes
  21. Forced : No
  22. Color range : Limited
  23. Color primaries : BT.2020
  24. Transfer characteristics : PQ
  25. Matrix coefficients : BT.2020 non-constant
  26. Mastering display color primaries : BT.2020
  27. Mastering display luminance : min: 0.0050 cd/m2, max: 1000 cd/m2
  28. Maximum Content Light Level : 468 cd/m2
  29. Maximum Frame-Average Light Level : 15 cd/m2

  30. Audio
  31. ID : 2
  32. Format : E-AC-3
  33. Format/Info : Enhanced AC-3
  34. Commercial name : Dolby Digital Plus
  35. Codec ID : A_EAC3
  36. Duration : 1 h 46 min
  37. Bit rate mode : Constant
  38. Bit rate : 640 kb/s
  39. Channel(s) : 6 channels
  40. Channel layout : L R C LFE Ls Rs
  41. Sampling rate : 48.0 kHz
  42. Frame rate : 31.250 FPS (1536 SPF)
  43. Compression mode : Lossy
  44. Stream size : 488 MiB (4%)
  45. Language : English
  46. Service kind : Complete Main
  47. Default : Yes
  48. Forced : No

  49. Text #1
  50. ID : 3
  51. Format : UTF-8
  52. Codec ID : S_TEXT/UTF8
  53. Codec ID/Info : UTF-8 Plain Text
  54. Duration : 1 h 37 min
  55. Bit rate : 77 b/s
  56. Count of elements : 1900
  57. Stream size : 55.4 KiB (0%)
  58. Language : English
  59. Default : No
  60. Forced : No

  61. Text #2
  62. ID : 4
  63. Format : UTF-8
  64. Codec ID : S_TEXT/UTF8
  65. Codec ID/Info : UTF-8 Plain Text
  66. Duration : 1 h 42 min
  67. Bit rate : 88 b/s
  68. Count of elements : 2100
  69. Stream size : 66.5 KiB (0%)
  70. Title : SDH
  71. Language : English
  72. Default : No
  73. Forced : No

  74. Menu
  75. 01:46:25.000 : en:Credits
复制代码

人类4K.The.Humans.2021.2160p.WEB-DL.x265.10bit.HDR.DDP5.1-4K电影下载

人类4K.The.Humans.2021.2160p.WEB-DL.DDP5.1.DV.MKV.x265【4K 杜比视界 18.32 GB】
[Hao4K]人类4K.The.Humans.2021.2160p.WEB-DL.DDP5.1.DV.MKV.x265-NOSiViD.torrent (23.53 KB)
回复

使用道具 举报

全部回复2

kwzx 21-11-25 11:01 显示全部楼层

kwzx 2

21-11-25 11:01

看到了斯蒂文·元
回复 支持 反对

使用道具 举报

66孔子 21-11-25 12:49 显示全部楼层

66孔子 3

21-11-25 12:49

辛苦楼主分享
回复 支持 反对

使用道具 举报

   发表回复

您需要登录后才可以回帖 登录 | 立即注册

返回列表 本版积分规则

  • 发布新帖

  • 客服/帮助

  • 手机APP

  • 返回顶部