微博 微信 APP

Hao4K影音

电影频道
电影封面:
片  名: The.Fight.Before.Christmas
电影分类: 纪录片 
国  家: 英国 
年  代: 2021年
分 辨 率: 4K(3840x2160)
电影格式: MKV|REMUX 
画质标准: HDR 
音质编码: Dolby Digital Plus Audio 
电影声道: 5.1声道 
帧数/FPS: 23.976 帧
电影语言: 中文简体 中文繁体 英文原版 
资源大小: 15.89 GB
导  演: -
豆瓣评分:
中文字幕: -
剧情简介: 讲述一个热爱圣诞节的男人痴迷于为所有人带来圣诞节的欢乐,当房主协会通知他他计划的活动违反了附近的规则时,他引发了一场战斗。
The.Fight.Before.Christmas.2021.HDR.2160p.WEB.h265-纪录片电影信息
  1. Video
  2. ID : 1
  3. Format : HEVC
  4. Format/Info : High Efficiency Video Coding
  5. Format profile : Main 10@L5@High
  6. HDR format : SMPTE ST 2086, HDR10 compatible
  7. Codec ID : V_MPEGH/ISO/HEVC
  8. Duration : 1 h 31 min
  9. Bit rate : 23.7 Mb/s
  10. Width : 3 840 pixels
  11. Height : 1 636 pixels
  12. Display aspect ratio : 2.35:1
  13. Frame rate mode : Constant
  14. Frame rate : 23.976 FPS
  15. Color space : YUV
  16. Chroma subsampling : 4:2:0 (Type 2)
  17. Bit depth : 10 bits
  18. Bits/(Pixel*Frame) : 0.158
  19. Stream size : 15.2 GiB (97%)
  20. Language : English
  21. Default : Yes
  22. Forced : No
  23. Color range : Limited
  24. Color primaries : BT.2020
  25. Transfer characteristics : PQ
  26. Matrix coefficients : BT.2020 non-constant
  27. Mastering display color primaries : Display P3
  28. Mastering display luminance : min: 0.0050 cd/m2, max: 1000 cd/m2
  29. Maximum Content Light Level : 1953 cd/m2
  30. Maximum Frame-Average Light Level : 178 cd/m2

  31. Audio
  32. ID : 2
  33. Format : E-AC-3 JOC
  34. Format/Info : Enhanced AC-3 with Joint Object Coding
  35. Commercial name : Dolby Digital Plus with Dolby Atmos
  36. Codec ID : A_EAC3
  37. Duration : 1 h 31 min
  38. Bit rate mode : Constant
  39. Bit rate : 768 kb/s
  40. Channel(s) : 6 channels
  41. Channel layout : L R C LFE Ls Rs
  42. Sampling rate : 48.0 kHz
  43. Frame rate : 31.250 FPS (1536 SPF)
  44. Compression mode : Lossy
  45. Stream size : 503 MiB (3%)
  46. Language : English
  47. Service kind : Complete Main
  48. Default : Yes
  49. Forced : No
  50. Complexity index : 16
  51. Number of dynamic objects : 15
  52. Bed channel count : 1 channel
  53. Bed channel configuration : LFE

  54. Text #1
  55. ID : 3
  56. Format : UTF-8
  57. Codec ID : S_TEXT/UTF8
  58. Codec ID/Info : UTF-8 Plain Text
  59. Duration : 1 h 30 min
  60. Bit rate : 126 b/s
  61. Count of elements : 1544
  62. Stream size : 83.9 KiB (0%)
  63. Title : العربية
  64. Language : Arabic
  65. Default : No
  66. Forced : No

  67. Text #2
  68. ID : 4
  69. Format : UTF-8
  70. Codec ID : S_TEXT/UTF8
  71. Codec ID/Info : UTF-8 Plain Text
  72. Duration : 1 h 30 min
  73. Bit rate : 139 b/s
  74. Count of elements : 1395
  75. Stream size : 92.8 KiB (0%)
  76. Title : български
  77. Language : Bulgarian
  78. Default : No
  79. Forced : No

  80. Text #3
  81. ID : 5
  82. Format : UTF-8
  83. Codec ID : S_TEXT/UTF8
  84. Codec ID/Info : UTF-8 Plain Text
  85. Duration : 1 h 30 min
  86. Bit rate : 81 b/s
  87. Count of elements : 1547
  88. Stream size : 54.1 KiB (0%)
  89. Title : 中文(简体)
  90. Language : Chinese
  91. Default : No
  92. Forced : No

  93. Text #4
  94. ID : 6
  95. Format : UTF-8
  96. Codec ID : S_TEXT/UTF8
  97. Codec ID/Info : UTF-8 Plain Text
  98. Duration : 1 h 30 min
  99. Bit rate : 81 b/s
  100. Count of elements : 1548
  101. Stream size : 53.9 KiB (0%)
  102. Title : 中文(繁體)
  103. Language : Chinese
  104. Default : No
  105. Forced : No

  106. Text #5
  107. ID : 7
  108. Format : UTF-8
  109. Codec ID : S_TEXT/UTF8
  110. Codec ID/Info : UTF-8 Plain Text
  111. Duration : 1 h 30 min
  112. Bit rate : 85 b/s
  113. Count of elements : 1371
  114. Stream size : 56.5 KiB (0%)
  115. Title : Čeština
  116. Language : Czech
  117. Default : No
  118. Forced : No
复制代码

The.Fight.Before.Christmas.2021.HDR.2160p.WEB.h265-纪录片电影下载

The.Fight.Before.Christmas.2021.HDR.2160p.WEB.h265【15.89 GB】

[Hao4k]The.Fight.Before.Christmas.2021.HDR.2160p.WEB.h265-RUMOUR.torrent (20.69 KB)
回复

使用道具 举报

全部回复1

dengke118 21-11-26 10:10 显示全部楼层

dengke118 2

21-11-26 10:10

不错的电影,谢谢分享!
回复 支持 反对

使用道具 举报

   发表回复

您需要登录后才可以回帖 登录 | 立即注册

返回列表 本版积分规则

  • 发布新帖

  • 客服/帮助

  • 手机APP

  • 返回顶部