微博 微信 APP

Hao4K影音

电视剧频道
电视剧封面:
电视剧名: 披头士乐队:回归4k
年  代: 2021  
国  家: 英国
类  别: 纪录片 
语  言: 英语
字  幕: 英文原版
上映日期: 2021-11-25
文件格式: mkv    
视频效果: 4K(3840x2160)    
资源大小: 22.23 GB
片  长: -
导  演: 彼得·杰克逊
剧情简介: 《指环王》导演彼得·杰克逊打造的披头士新纪录片《The Beatles:Get Back》要推出了。迪士尼前CEO、现董事会执行主席Bob Iger在年度股东大会上宣布:该片定档于9月4日北美上映。
  此前该片透露的信息是:记录的是披头士如何录制出经典名曲&专辑《Let It Be》。基于长达55小时的此前未曝光录像,包括披头士在录音室中制作的少见画面,拍摄时间为1969年1月2日-31日。1970年5月,《Let It Be》专辑发行,而当时乐队刚分崩离析。录像高潮为披头士那场著名演出——在伦敦萨维尔街苹果唱片公司总部旧址屋顶上的表演。
  这段录像本来是用来做一个特别节目的,现用在纪录片上。此外还有140小时的音频。
  《Let It Be》那段时间经常被看成乐队的动荡时期,而杰克逊说,他很高兴看完这些新得到的视频后,发现事实跟传说并不一样:在那些录像中,虽然也有抓马,但更多的是乐队成员们如何制作出经典音乐,那样的画面“不仅让人神往,而且很有趣,振奋人心,而且与他们的距离让人惊讶地非常亲密贴近。”PJ称很荣幸和开心能得到这样的视频,“制作这部电影会是完全的快乐”。
  他用了已经用在他此前执导的纪录片《他们已不再变老》中的“黑科技”复原技术来处理这些视频。
  该片获得了乐队成员保罗·麦卡特尼、林戈·斯塔尔和去世成员家属的合作,包括约翰·列侬的遗孀小野洋子、乔治·哈里森的遗孀Olivia Harrison,苹果唱片公司也参与制作。
披头士乐队:回归4k.The.Beatles.Get.Back.S01E01.Part.1.Days.1-7.2160p.WEB-DL.DDP5.1.Atmos.x265纪录片信息
  1. Video
  2. ID : 1
  3. Format : HEVC
  4. Format/Info : High Efficiency Video Coding
  5. Format profile : Main@L5@High
  6. Codec ID : V_MPEGH/ISO/HEVC
  7. Duration : 2 h 36 min
  8. Bit rate : 19.5 Mb/s
  9. Width : 3 840 pixels
  10. Height : 2 160 pixels
  11. Display aspect ratio : 16:9
  12. Frame rate mode : Constant
  13. Frame rate : 24.000 FPS
  14. Color space : YUV
  15. Chroma subsampling : 4:2:0
  16. Bit depth : 8 bits
  17. Bits/(Pixel*Frame) : 0.098
  18. Stream size : 21.4 GiB (96%)
  19. Writing library : x265 3.5:[Linux][GCC 9.3.0][64 bit] 8bit+10bit+12bit
  20. Encoding settings : cpuid=1111039 / frame-threads=1 / wpp / no-pmode / no-pme / no-psnr / no-ssim / log-level=2 / input-csp=1 / input-res=3840x2160 / interlace=0 / total-frames=0 / level-idc=50 / high-tier=1 / uhd-bd=0 / ref=2 / no-allow-non-conformance / repeat-headers / annexb / no-aud / no-hrd / info / hash=0 / no-temporal-layers / no-open-gop / min-keyint=48 / keyint=48 / gop-lookahead=0 / bframes=4 / b-adapt=1 / b-pyramid / bframe-bias=0 / rc-lookahead=48 / lookahead-slices=8 / scenecut=0 / hist-scenecut=0 / radl=0 / no-splice / no-intra-refresh / ctu=32 / min-cu-size=8 / no-rect / no-amp / max-tu-size=16 / tu-inter-depth=2 / tu-intra-depth=2 / limit-tu=0 / rdoq-level=1 / dynamic-rd=0.00 / no-ssim-rd / signhide / no-tskip / nr-intra=0 / nr-inter=0 / no-constrained-intra / no-strong-intra-smoothing / max-merge=3 / limit-refs=1 / no-limit-modes / me=1 / subme=2 / merange=44 / temporal-mvp / no-frame-dup / no-hme / weightp / no-weightb / no-analyze-src-pics / deblock=0:0 / no-sao / no-sao-non-deblock / rd=4 / selective-sao=0 / early-skip / rskip / no-fast-intra / no-tskip-fast / no-cu-lossless / b-intra / no-splitrd-skip / rdpenalty=1 / psy-rd=1.60 / psy-rdoq=5.00 / no-rd-refine / no-lossless / cbqpoffs=0 / crqpoffs=0 / rc=abr / bitrate=20000 / qcomp=0.75 / qpstep=4 / stats-write=0 / stats-read=0 / vbv-maxrate=24000 / vbv-bufsize=40000 / vbv-init=0.9 / ipratio=1.40 / pbratio=1.30 / aq-mode=3 / aq-strength=1.00 / no-cutree / zone-count=0 / no-strict-cbr / qg-size=32 / no-rc-grain / qpmax=69 / qpmin=0 / no-const-vbv / sar=1 / overscan=0 / videoformat=5 / range=0 / colorprim=1 / transfer=2 / colormatrix=1 / chromaloc=0 / display-window=0 / cll=0,0 / min-luma=0 / max-luma=255 / log2-max-poc-lsb=8 / vui-timing-info / vui-hrd-info / slices=1 / no-opt-qp-pps / no-opt-ref-list-length-pps / no-multi-pass-opt-rps / scenecut-bias=0.00 / hist-threshold=0.01 / no-opt-cu-delta-qp / no-aq-motion / no-hdr10 / no-hdr10-opt / no-dhdr10-opt / no-idr-recovery-sei / analysis-reuse-level=0 / analysis-save-reuse-level=0 / analysis-load-reuse-level=0 / scale-factor=0 / refine-intra=0 / refine-inter=0 / refine-mv=1 / refine-ctu-distortion=0 / no-limit-sao / ctu-info=0 / no-lowpass-dct / refine-analysis-type=0 / copy-pic=1 / max-ausize-factor=1.0 / no-dynamic-refine / no-single-sei / no-hevc-aq / no-svt / no-field / qp-adaptation-range=1.00 / no-scenecut-aware-qpconformance-window-offsets / right=0 / bottom=0
  21. Default : Yes
  22. Forced : No
  23. Color range : Limited
  24. Color primaries : BT.709
  25. Matrix coefficients : BT.709

  26. Audio
  27. ID : 2
  28. Format : E-AC-3 JOC
  29. Format/Info : Enhanced AC-3 with Joint Object Coding
  30. Commercial name : Dolby Digital Plus with Dolby Atmos
  31. Codec ID : A_EAC3
  32. Duration : 2 h 36 min
  33. Bit rate mode : Constant
  34. Bit rate : 768 kb/s
  35. Channel(s) : 6 channels
  36. Channel layout : L R C LFE Ls Rs
  37. Sampling rate : 48.0 kHz
  38. Frame rate : 31.250 FPS (1536 SPF)
  39. Compression mode : Lossy
  40. Delay relative to video : 458 ms
  41. Stream size : 861 MiB (4%)
  42. Language : English
  43. Service kind : Complete Main
  44. Default : Yes
  45. Forced : No
  46. Complexity index : 16
  47. Number of dynamic objects : 15
  48. Bed channel count : 1 channel
  49. Bed channel configuration : LFE

  50. Text #1
  51. ID : 3
  52. Format : UTF-8
  53. Codec ID : S_TEXT/UTF8
  54. Codec ID/Info : UTF-8 Plain Text
  55. Duration : 2 h 28 min
  56. Bit rate : 54 b/s
  57. Count of elements : 1656
  58. Stream size : 59.6 KiB (0%)
  59. Language : English
  60. Default : No
  61. Forced : No

  62. Text #2
  63. ID : 4
  64. Format : UTF-8
  65. Codec ID : S_TEXT/UTF8
  66. Codec ID/Info : UTF-8 Plain Text
  67. Duration : 2 h 30 min
  68. Bit rate : 96 b/s
  69. Count of elements : 2580
  70. Stream size : 106 KiB (0%)
  71. Title : SDH
  72. Language : English
  73. Default : No
  74. Forced : No

  75. Text #3
  76. ID : 5
  77. Format : UTF-8
  78. Codec ID : S_TEXT/UTF8
  79. Codec ID/Info : UTF-8 Plain Text
  80. Duration : 2 h 36 min
  81. Bit rate : 62 b/s
  82. Count of elements : 2054
  83. Stream size : 71.3 KiB (0%)
  84. Language : Danish
  85. Default : No
  86. Forced : No

  87. Text #4
  88. ID : 6
  89. Format : UTF-8
  90. Codec ID : S_TEXT/UTF8
  91. Codec ID/Info : UTF-8 Plain Text
  92. Duration : 2 h 36 min
  93. Bit rate : 62 b/s
  94. Count of elements : 1845
  95. Stream size : 71.5 KiB (0%)
  96. Language : German
  97. Default : No
  98. Forced : No

  99. Text #5
  100. ID : 7
  101. Format : UTF-8
  102. Codec ID : S_TEXT/UTF8
  103. Codec ID/Info : UTF-8 Plain Text
  104. Duration : 2 h 36 min
  105. Bit rate : 61 b/s
  106. Count of elements : 1990
  107. Stream size : 70.4 KiB (0%)
  108. Title : Latin American
  109. Language : Spanish
  110. Default : No
  111. Forced : No

  112. Text #6
  113. ID : 8
  114. Format : UTF-8
  115. Codec ID : S_TEXT/UTF8
  116. Codec ID/Info : UTF-8 Plain Text
  117. Duration : 2 h 36 min
  118. Bit rate : 69 b/s
  119. Count of elements : 1911
  120. Stream size : 79.2 KiB (0%)
  121. Language : Spanish
  122. Default : No
  123. Forced : No

  124. Text #7
  125. ID : 9
  126. Format : UTF-8
  127. Codec ID : S_TEXT/UTF8
  128. Codec ID/Info : UTF-8 Plain Text
  129. Duration : 2 h 36 min
  130. Bit rate : 62 b/s
  131. Count of elements : 1918
  132. Stream size : 71.2 KiB (0%)
  133. Language : Finnish
  134. Default : No
  135. Forced : No

  136. Text #8
  137. ID : 10
  138. Format : UTF-8
  139. Codec ID : S_TEXT/UTF8
  140. Codec ID/Info : UTF-8 Plain Text
  141. Duration : 2 h 36 min
  142. Bit rate : 59 b/s
  143. Count of elements : 1915
  144. Stream size : 68.3 KiB (0%)
  145. Language : French
  146. Default : No
  147. Forced : No

  148. Text #9
  149. ID : 11
  150. Format : UTF-8
  151. Codec ID : S_TEXT/UTF8
  152. Codec ID/Info : UTF-8 Plain Text
  153. Duration : 2 h 36 min
  154. Bit rate : 65 b/s
  155. Count of elements : 2038
  156. Stream size : 74.5 KiB (0%)
  157. Language : Italian
  158. Default : No
  159. Forced : No

  160. Text #10
  161. ID : 12
  162. Format : UTF-8
  163. Codec ID : S_TEXT/UTF8
  164. Codec ID/Info : UTF-8 Plain Text
  165. Duration : 2 h 36 min
  166. Bit rate : 49 b/s
  167. Count of elements : 1482
  168. Stream size : 57.1 KiB (0%)
  169. Language : Japanese
  170. Default : No
  171. Forced : No

  172. Text #11
  173. ID : 13
  174. Format : UTF-8
  175. Codec ID : S_TEXT/UTF8
  176. Codec ID/Info : UTF-8 Plain Text
  177. Duration : 2 h 36 min
  178. Bit rate : 77 b/s
  179. Count of elements : 2199
  180. Stream size : 88.6 KiB (0%)
  181. Language : Korean
  182. Default : No
  183. Forced : No

  184. Text #12
  185. ID : 14
  186. Format : UTF-8
  187. Codec ID : S_TEXT/UTF8
  188. Codec ID/Info : UTF-8 Plain Text
  189. Duration : 2 h 29 min
  190. Bit rate : 64 b/s
  191. Count of elements : 1630
  192. Stream size : 70.3 KiB (0%)
  193. Language : Dutch
  194. Default : No
  195. Forced : No

  196. Text #13
  197. ID : 15
  198. Format : UTF-8
  199. Codec ID : S_TEXT/UTF8
  200. Codec ID/Info : UTF-8 Plain Text
  201. Duration : 2 h 36 min
  202. Bit rate : 62 b/s
  203. Count of elements : 1634
  204. Stream size : 71.3 KiB (0%)
  205. Language : Norwegian
  206. Default : No
  207. Forced : No

  208. Text #14
  209. ID : 16
  210. Format : UTF-8
  211. Codec ID : S_TEXT/UTF8
  212. Codec ID/Info : UTF-8 Plain Text
  213. Duration : 2 h 36 min
  214. Bit rate : 55 b/s
  215. Count of elements : 2030
  216. Stream size : 63.3 KiB (0%)
  217. Language : Polish
  218. Default : No
  219. Forced : No

  220. Text #15
  221. ID : 17
  222. Format : UTF-8
  223. Codec ID : S_TEXT/UTF8
  224. Codec ID/Info : UTF-8 Plain Text
  225. Duration : 2 h 36 min
  226. Bit rate : 59 b/s
  227. Count of elements : 1946
  228. Stream size : 68.2 KiB (0%)
  229. Title : Brazilian
  230. Language : Portuguese
  231. Default : No
  232. Forced : No

  233. Text #16
  234. ID : 18
  235. Format : UTF-8
  236. Codec ID : S_TEXT/UTF8
  237. Codec ID/Info : UTF-8 Plain Text
  238. Duration : 2 h 36 min
  239. Bit rate : 65 b/s
  240. Count of elements : 2025
  241. Stream size : 74.8 KiB (0%)
  242. Language : Portuguese
  243. Default : No
  244. Forced : No

  245. Text #17
  246. ID : 19
  247. Format : UTF-8
  248. Codec ID : S_TEXT/UTF8
  249. Codec ID/Info : UTF-8 Plain Text
  250. Duration : 2 h 36 min
  251. Bit rate : 63 b/s
  252. Count of elements : 2111
  253. Stream size : 72.8 KiB (0%)
  254. Language : Swedish
  255. Default : No
  256. Forced : No

  257. Text #18
  258. ID : 20
  259. Format : UTF-8
  260. Codec ID : S_TEXT/UTF8
  261. Codec ID/Info : UTF-8 Plain Text
  262. Duration : 2 h 36 min
  263. Bit rate : 64 b/s
  264. Count of elements : 2129
  265. Stream size : 74.1 KiB (0%)
  266. Language : Chinese
  267. Default : No
  268. Forced : No

  269. Text #19
  270. ID : 21
  271. Format : UTF-8
  272. Codec ID : S_TEXT/UTF8
  273. Codec ID/Info : UTF-8 Plain Text
  274. Duration : 2 h 36 min
  275. Bit rate : 65 b/s
  276. Count of elements : 2105
  277. Stream size : 74.7 KiB (0%)
  278. Title : Simplified
  279. Language : Chinese
  280. Default : No
  281. Forced : No

  282. Text #20
  283. ID : 22
  284. Format : UTF-8
  285. Codec ID : S_TEXT/UTF8
  286. Codec ID/Info : UTF-8 Plain Text
  287. Duration : 2 h 36 min
  288. Bit rate : 61 b/s
  289. Count of elements : 2178
  290. Stream size : 70.0 KiB (0%)
  291. Title : Traditional
  292. Language : Chinese
  293. Default : No
  294. Forced : No

  295. Menu
  296. 02:29:55.583 : Credits
复制代码


披头士乐队:回归4k.The.Beatles.Get.Back.S01E01.Part.1.Days.1-7.2160p.WEB-DL.DDP5.1.Atmos.x265纪录片下载

披头士乐队:回归4k.The.Beatles.Get.Back.S01E01.Part.1.Days.1-7.2160p.WEB-DL.DDP5.1.Atmos.x265【22.23 GB】
[Hao4k]披头士乐队:回归4k.The.Beatles.Get.Back.S01E01.Part.1.Days.1-7.2160p.WEB-DL.DDP5.1.Atmos.x265-TEPES.torrent (28.47 KB)
回复

使用道具 举报

   发表回复

您需要登录后才可以回帖 登录 | 立即注册

返回列表 本版积分规则

  • 发布新帖

  • 客服/帮助

  • 手机APP

  • 返回顶部