微博 微信 APP

Hao4K影音

电影频道
电影封面:
片  名: 飞屋环游记
电影分类: 冒险 剧情 喜剧 动画 儿童 
国  家: 美国 
年  代: 00年代
分 辨 率: 4K(3840x2160)
电影格式: M2TS|BDMV 
画质标准: Dolby Vision 
音质编码: Dolby-Atmos 
电影声道: 其他 
帧数/FPS: 23.976 帧
电影语言: 中文简体 英文原版 无字幕 
资源大小: 39.1 GB
导  演: 彼特·道格特 / 鲍勃·彼德森
豆瓣评分: 9.1 分
中文字幕: -
剧情简介: 《飞屋环游记》是由彼特·道格特执导,皮克斯动画工作室制作的第十部动画电影、首部3D电影。影片在2009年5月29日于美国正式上映。讲述了一个老人曾经与老伴约定去一座坐落在遥远南美洲的瀑布旅行,却因为生活奔波一直未能成行,直到自己的老屋即将被强拆时才决定带着屋子一起飞向瀑布,路上与结识的小胖子罗素一起冒险的经历。
视频源于UHD蓝光原盘,杜比视界rpu元数据来自NOSiViD小组出品的WEB-DL版本,由P5转换至P8并调整匹配UHD蓝光版。
音频仅保留英语无损杜比全景声音轨
字幕保留UHD自带英文字幕,并添加蓝光原盘自带中文简体字幕亮度经映射以满足HDR标准)。


详细文件信息:
  1. Video
  2. ID                                       : 4117 (0x1015)
  3. Menu ID                                  : 1 (0x1)
  4. Format                                   : HEVC
  5. Format/Info                              : High Efficiency Video Coding
  6. Format profile                           : Main 10@L5.1@High
  7. HDR format                               : Dolby Vision, Version 1.0, dvhe.08.06, BL+RPU, HDR10 compatible / SMPTE ST 2086, HDR10 compatible
  8. Codec ID                                 : 36
  9. Duration                                 : 1 h 36 min
  10. Bit rate                                 : 54.7 Mb/s
  11. Width                                    : 3 840 pixels
  12. Height                                   : 2 160 pixels
  13. Display aspect ratio                     : 16:9
  14. Frame rate                               : 23.976 (24000/1001) FPS
  15. Color space                              : YUV
  16. Chroma subsampling                       : 4:2:0 (Type 2)
  17. Bit depth                                : 10 bits
  18. Bits/(Pixel*Frame)                       : 0.275
  19. Stream size                              : 36.7 GiB (94%)
  20. Writing library                          : ATEME Titan File 3.9.0 (4.9.0.0)        
  21. Color range                              : Limited
  22. Color primaries                          : BT.2020
  23. Transfer characteristics                 : PQ
  24. Matrix coefficients                      : BT.2020 non-constant
  25. Mastering display color primaries        : Display P3
  26. Mastering display luminance              : min: 0.0000 cd/m2, max: 1000 cd/m2

  27. Audio
  28. ID                                       : 4352 (0x1100)
  29. Menu ID                                  : 1 (0x1)
  30. Format                                   : MLP FBA AC-3 16-ch
  31. Format/Info                              : Meridian Lossless Packing FBA with 16-channel presentation
  32. Commercial name                          : Dolby TrueHD with Dolby Atmos
  33. Muxing mode                              : Stream extension
  34. Codec ID                                 : 131
  35. Duration                                 : 1 h 36 min
  36. Bit rate mode                            : Variable
  37. Bit rate                                 : 640 kb/s
  38. Maximum bit rate                         : 8 307 kb/s
  39. Channel(s)                               : 8 channels
  40. Channel layout                           : L R C LFE Ls Rs Lb Rb
  41. Sampling rate                            : 48.0 kHz
  42. Frame rate                               : 31.250 FPS (1536 SPF)
  43. Compression mode                         : Lossless
  44. Stream size                              : 440 MiB (1%)
  45. Language                                 : English
  46. Service kind                             : Complete Main
  47. Number of dynamic objects                : 13
  48. Bed channel count                        : 1 channel
  49. Bed channel configuration                : LFE

  50. Text #1
  51. ID                                       : 4768 (0x12A0)
  52. Menu ID                                  : 1 (0x1)
  53. Format                                   : PGS
  54. Codec ID                                 : 144
  55. Language                                 : Chinese

  56. Text #2
  57. ID                                       : 4769 (0x12A1)
  58. Menu ID                                  : 1 (0x1)
  59. Format                                   : PGS
  60. Codec ID                                 : 144
  61. Delay relative to video                  : 1 s 668 ms
  62. Language                                 : English
复制代码
文件符合杜比视界P8标准,TS容器封装。此格式经测试可以在Oppo 4K蓝光机、nVidia Shield Pro 2019、芝杜/杜恩搭载RTD1619DR芯片的机型,以及部分支持杜比视界的4K智能电视上以杜比视界格式播放,在不支持的设备上可能会以HDR10格式播放。如果安卓系统原生播放器不支持杜比视界,可以安装最新版Kodi、ViMu Media Player for TV或Just Player播放以尝试点亮杜比视界。建议先下载测试文件,测试成功播放后再下载。


测试片段链接(阿里云盘):https://www.aliyundrive.com/s/Gwz3UnyHYhU

完整版链接(阿里云盘):
https://www.aliyundrive.com/s/n2wpspVTZFy


注:如使用阿里云盘下载时遇到问题,可尝试使用第三方客户端“阿里云盘小白羊版”。

回复

使用道具 举报

全部回复10

laoxu_23 2

22-1-2 21:34

链接不对吧
回复 支持 反对

使用道具 举报

745745 3

22-1-2 22:28


已修正
回复 支持 反对

使用道具 举报

lchlxx 22-1-3 08:09 显示全部楼层

lchlxx 4

22-1-3 08:09

谢谢楼主 又出经典 下载收藏
回复 支持 反对

使用道具 举报

bbgrnnji 5

22-1-3 16:54

一看就是相当的喜气
回复 支持 反对

使用道具 举报

静风JF 6

22-1-6 14:38

我没有阿里云盘
回复 支持 反对

使用道具 举报

cxd98 22-1-7 10:12 显示全部楼层

cxd98 7

22-1-7 10:12

大神出手必是精品!谢谢分享!
回复 支持 反对

使用道具 举报

天天超频 8

22-1-7 11:30

动画片,建议也整合或者保留中文音轨更好一点,适合阖家观影
回复 支持 反对

使用道具 举报

745745 9

22-1-7 14:16

天天超频 发表于 22-1-7 11:30
动画片,建议也整合或者保留中文音轨更好一点,适合阖家观影

一般非特殊情况,只会使用官方素材,而本片蓝光里未收录大陆国语配音,故只封装了英文。
回复 支持 反对

使用道具 举报

qingshao 10

22-1-11 09:27

很温馨动画。必看!
回复 支持 反对

使用道具 举报

lanxinxp 11

22-1-11 17:11

赞一个!!谢谢分享~~
回复 支持 反对

使用道具 举报

   发表回复

您需要登录后才可以回帖 登录 | 立即注册

返回列表 本版积分规则

  • 发布新帖

  • 客服/帮助

  • 手机APP

  • 返回顶部