微博 微信 APP

Hao4K影音

电影频道
电影封面:
片  名: 超能敢死队4K
电影分类: 冒险 喜剧 奇幻 
国  家: 美国 
年  代: 2021年
分 辨 率: 4K(3840x2160)
电影格式: MKV|REMUX 
画质标准: HDR SDR 
音质编码: Dolby Digital Plus Audio 
电影声道: 5.1声道 
帧数/FPS: 23.976 帧
电影语言: 中文简体 英文原版 
资源大小: 3.09 GB
导  演: 贾森·雷特曼
豆瓣评分: 6.5 分
中文字幕: -
剧情简介: 一对年幼的兄妹跟随母亲来到了乡下,然而这个偏僻宁静的小镇,却发生了一连串奇异的怪事,一名声称研究超自然现象的神秘男子悄悄现身。
捉鬼敢死队:魅来世界(港) / 魔鬼克星 未来世(台) / 捉鬼敢死队:来世 / 捉鬼敢死队:来生 / 新捉鬼敢死队 / 捉鬼敢死队3 / 锈蚀之城 / Ghostbusters 2020 / Rust City/超能敢死队4K.Ghostbusters.Afterlife.2021.2160p.WEB-DL.x265.10bit.HDR.DDP5.1.Atmos-4k电影信息
  1. Video
  2. ID : 1
  3. Format : HEVC
  4. Format/Info : High Efficiency Video Coding
  5. Format profile : Main 10@L5@High
  6. HDR format : SMPTE ST 2086, HDR10 compatible
  7. Codec ID : V_MPEGH/ISO/HEVC
  8. Duration : 2 h 3 min
  9. Bit rate : 14.4 Mb/s
  10. Width : 3 840 pixels
  11. Height : 1 592 pixels
  12. Display aspect ratio : 2.40:1
  13. Frame rate mode : Constant
  14. Frame rate : 23.976 FPS
  15. Color space : YUV
  16. Chroma subsampling : 4:2:0 (Type 2)
  17. Bit depth : 10 bits
  18. Bits/(Pixel*Frame) : 0.098
  19. Stream size : 12.4 GiB (95%)
  20. Default : Yes
  21. Forced : No
  22. Color range : Limited
  23. Color primaries : BT.2020
  24. Transfer characteristics : PQ
  25. Matrix coefficients : BT.2020 non-constant
  26. Mastering display color primaries : BT.2020
  27. Mastering display luminance : min: 0.0050 cd/m2, max: 1000 cd/m2
  28. Maximum Content Light Level : 891 cd/m2
  29. Maximum Frame-Average Light Level : 390 cd/m2

  30. Audio
  31. ID : 2
  32. Format : E-AC-3 JOC
  33. Format/Info : Enhanced AC-3 with Joint Object Coding
  34. Commercial name : Dolby Digital Plus with Dolby Atmos
  35. Codec ID : A_EAC3
  36. Duration : 2 h 3 min
  37. Bit rate mode : Constant
  38. Bit rate : 768 kb/s
  39. Channel(s) : 6 channels
  40. Channel layout : L R C LFE Ls Rs
  41. Sampling rate : 48.0 kHz
  42. Frame rate : 31.250 FPS (1536 SPF)
  43. Compression mode : Lossy
  44. Stream size : 681 MiB (5%)
  45. Title : English
  46. Language : English
  47. Service kind : Complete Main
  48. Default : No
  49. Forced : No
  50. Complexity index : 16
  51. Number of dynamic objects : 15
  52. Bed channel count : 1 channel
  53. Bed channel configuration : LFE

  54. Text #1
  55. ID : 3
  56. Format : UTF-8
  57. Codec ID : S_TEXT/UTF8
  58. Codec ID/Info : UTF-8 Plain Text
  59. Duration : 2 h 2 min
  60. Bit rate : 36 b/s
  61. Count of elements : 1202
  62. Stream size : 32.3 KiB (0%)
  63. Title : Simplified
  64. Language : Chinese
  65. Default : No
  66. Forced : No

  67. Text #2
  68. ID : 4
  69. Format : UTF-8
  70. Codec ID : S_TEXT/UTF8
  71. Codec ID/Info : UTF-8 Plain Text
  72. Duration : 1 h 58 min
  73. Bit rate : 39 b/s
  74. Count of elements : 1186
  75. Stream size : 34.2 KiB (0%)
  76. Title : English [SDH]
  77. Language : English
  78. Default : No
  79. Forced : No

  80. Text #3
  81. ID : 5
  82. Format : UTF-8
  83. Codec ID : S_TEXT/UTF8
  84. Codec ID/Info : UTF-8 Plain Text
  85. Duration : 1 h 58 min
  86. Bit rate : 39 b/s
  87. Count of elements : 1186
  88. Stream size : 34.2 KiB (0%)
  89. Title : British English
  90. Language : English
  91. Default : No
  92. Forced : No

  93. Text #4
  94. ID : 6
  95. Format : UTF-8
  96. Codec ID : S_TEXT/UTF8
  97. Codec ID/Info : UTF-8 Plain Text
  98. Duration : 2 h 2 min
  99. Bit rate : 34 b/s
  100. Count of elements : 1123
  101. Stream size : 30.7 KiB (0%)
  102. Title : French
  103. Language : French
  104. Default : No
  105. Forced : No

  106. Text #5
  107. ID : 7
  108. Format : UTF-8
  109. Codec ID : S_TEXT/UTF8
  110. Codec ID/Info : UTF-8 Plain Text
  111. Duration : 1 h 58 min
  112. Bit rate : 38 b/s
  113. Count of elements : 1218
  114. Stream size : 33.7 KiB (0%)
  115. Title : German
  116. Language : German
  117. Default : No
  118. Forced : No

  119. Text #6
  120. ID : 8
  121. Format : UTF-8
  122. Codec ID : S_TEXT/UTF8
  123. Codec ID/Info : UTF-8 Plain Text
  124. Duration : 2 h 2 min
  125. Bit rate : 38 b/s
  126. Count of elements : 1183
  127. Stream size : 34.8 KiB (0%)
  128. Title : Italian
  129. Language : Italian
  130. Default : No
  131. Forced : No

  132. Text #7
  133. ID : 9
  134. Format : UTF-8
  135. Codec ID : S_TEXT/UTF8
  136. Codec ID/Info : UTF-8 Plain Text
  137. Duration : 2 h 2 min
  138. Bit rate : 38 b/s
  139. Count of elements : 1219
  140. Stream size : 34.9 KiB (0%)
  141. Title : Korean
  142. Language : Korean
  143. Default : No
  144. Forced : No

  145. Text #8
  146. ID : 10
  147. Format : UTF-8
  148. Codec ID : S_TEXT/UTF8
  149. Codec ID/Info : UTF-8 Plain Text
  150. Duration : 2 h 2 min
  151. Bit rate : 36 b/s
  152. Count of elements : 1149
  153. Stream size : 32.8 KiB (0%)
  154. Title : Brazilian Portuguese
  155. Language : Portuguese
  156. Default : No
  157. Forced : No

  158. Text #9
  159. ID : 11
  160. Format : UTF-8
  161. Codec ID : S_TEXT/UTF8
  162. Codec ID/Info : UTF-8 Plain Text
  163. Duration : 2 h 2 min
  164. Bit rate : 63 b/s
  165. Count of elements : 1209
  166. Stream size : 57.4 KiB (0%)
  167. Title : Russian
  168. Language : Russian
  169. Default : No
  170. Forced : No

  171. Text #10
  172. ID : 12
  173. Format : UTF-8
  174. Codec ID : S_TEXT/UTF8
  175. Codec ID/Info : UTF-8 Plain Text
  176. Duration : 2 h 2 min
  177. Bit rate : 36 b/s
  178. Count of elements : 1196
  179. Stream size : 32.5 KiB (0%)
  180. Title : Spanish
  181. Language : Spanish
  182. Default : No
  183. Forced : No

  184. Text #11
  185. ID : 13
  186. Format : UTF-8
  187. Codec ID : S_TEXT/UTF8
  188. Codec ID/Info : UTF-8 Plain Text
  189. Duration : 2 h 2 min
  190. Bit rate : 63 b/s
  191. Count of elements : 1217
  192. Stream size : 56.6 KiB (0%)
  193. Title : Ukrainian
  194. Language : Ukrainian
  195. Default : No
  196. Forced : No
复制代码

捉鬼敢死队:魅来世界(港) / 魔鬼克星 未来世(台) / 捉鬼敢死队:来世 / 捉鬼敢死队:来生 / 新捉鬼敢死队 / 捉鬼敢死队3 / 锈蚀之城 / Ghostbusters 2020 / Rust City/超能敢死队4K.Ghostbusters.Afterlife.2021.2160p.WEB-DL.x265.10bit.HDR.DDP5.1.Atmos-4k电影下载

超能敢死队4K.Ghostbusters.Afterlife.2021.2160p.WEB-DL.x265.10bit.HDR.DDP5.1.Atmos【4K HDR 13.09 GB】
[Hao4K]超能敢死队4K.Ghostbusters.Afterlife.2021.2160p.WEB-DL.x265.10bit.HDR.DDP5.1.Atmos-CM.torrent (17.02 KB, 售价: 3 个K币)
回复

使用道具 举报

   发表回复

您需要登录后才可以回帖 登录 | 立即注册

返回列表 本版积分规则

  • 发布新帖

  • 客服/帮助

  • 手机APP

  • 返回顶部