微博 微信 APP

Hao4K影音

电影频道
电影封面:
片  名: 杰伊·比姆4k
电影分类: 犯罪 剧情 
国  家: 印度 
年  代: 2021年
分 辨 率: 4K(3840x2160)
电影格式: MKV|REMUX 
画质标准: HDR 
音质编码: Dolby Digital Plus Audio 
电影声道: 5.1声道 
帧数/FPS: 23.964 帧
电影语言: 中文简体 中文繁体 
资源大小: 17.85 GB
导  演: T.J. Gnanavel
豆瓣评分: 8.7 分
中文字幕: -
剧情简介: 当一名部落男子因涉嫌盗窃而被捕时,他的妻子求助于一名人权律师以帮助伸张正义。
杰伊·比姆/万岁毕姆 / 斗争万岁4k.Jai.Bhim.2021.2160p.AMZN.WEB-DL.DDP5.1.HDR.H265.10bit 4k电影信息

  1. General
  2. Unique ID : 210403331120942724610098548116792655504 (0x9E4A3523FE4AE9F8F37D815DDD7DBE90)
  3. Complete name : K:\Jai.Bhim.2021.2160p.AMZN.WEB-DL.DDP5.1.HDR.H265.10bit\Jai.Bhim.2021.2160p.AMZN.WEB-DL.DDP5.1.HDR.H265.10bit-Hao4K.mkv
  4. Format : Matroska
  5. Format version : Version 4
  6. File size : 17.8 GiB
  7. Duration : 2 h 44 min
  8. Overall bit rate : 15.6 Mb/s
  9. Movie name : Telly
  10. Encoded date : UTC 2021-12-06 12:55:43
  11. Writing application : mkvmerge v62.0.0 ('Apollo') 64-bit
  12. Writing library : libebml v1.4.2 + libmatroska v1.6.4

  13. Video
  14. ID : 1
  15. Format : HEVC
  16. Format/Info : High Efficiency Video Coding
  17. Format profile : Main 10@L5@Main
  18. HDR format : SMPTE ST 2094 App 4, Version 1, HDR10+ Profile B compatible
  19. Codec ID : V_MPEGH/ISO/HEVC
  20. Duration  : 2 h 44 min
  21. Bit rate : 14.9 Mb/s
  22. Width : 3 840 pixels
  23. Height : 1 600 pixels
  24. Display aspect ratio : 2.40:1
  25. Frame rate mode : Constant
  26. Frame rate : 24.000 FPS
  27. Color space : YUV
  28. Chroma subsampling : 4:2:0
  29. Bit depth : 10 bits
  30. Bits/(Pixel*Frame) : 0.101
  31. Stream size : 17.0 GiB (95%)
  32. Language : Tamil
  33. Default : Yes
  34. Forced : No
  35. Color range : Limited
  36. Color primaries : BT.2020
  37. Transfer characteristics : PQ
  38. Matrix coefficients : BT.2020 non-constant
  39. Mastering display color primaries : BT.2020
  40. Mastering display luminance : min: 0.0001 cd/m2, max: 1000 cd/m2
  41. Maximum Content Light Level : 967 cd/m2
  42. Maximum Frame-Average Light Level : 750 cd/m2

  43. Audio
  44. ID : 2
  45. Format : E-AC-3
  46. Format/Info : Enhanced AC-3
  47. Commercial name : Dolby Digital Plus
  48. Codec ID : A_EAC3
  49. Duration : 2 h 44 min
  50. Bit rate mode : Constant
  51. Bit rate : 640 kb/s
  52. Channel(s) : 6 channels
  53. Channel layout : L R C LFE Ls Rs
  54. Sampling rate : 48.0 kHz
  55. Frame rate : 31.250 FPS (1536 SPF)
  56. Compression mode : Lossy
  57. Stream size : 751 MiB (4%)
  58. Title : 原生泰米尔语
  59. Language : Tamil
  60. Service kind : Complete Main
  61. Default : No
  62. Forced : No

  63. Text #1
  64. ID : 3
  65. Format : UTF-8
  66. Codec ID : S_TEXT/UTF8
  67. Codec ID/Info : UTF-8 Plain Text
  68. Duration : 2 h 38 min
  69. Bit rate : 76 b/s
  70. Count of elements : 2406
  71. Stream size : 88.2 KiB (0%)
  72. Title : 原生英文
  73. Language : English
  74. Default : No
  75. Forced : No

  76. Text #2
  77. ID : 4
  78. Format : PGS
  79. Muxing mode : zlib
  80. Codec ID : S_HDMV/PGS
  81. Codec ID/Info : Picture based subtitle format used on BDs/HD-DVDs
  82. Duration : 2 h 38 min
  83. Bit rate : 64.6 kb/s
  84. Count of elements : 4838
  85. Stream size : 73.2 MiB (0%)
  86. Title : 简英双语
  87. Language : Chinese
  88. Default : Yes
  89. Forced : No

  90. Text #3
  91. ID : 5
  92. Format : PGS
  93. Muxing mode : zlib
  94. Codec ID : S_HDMV/PGS
  95. Codec ID/Info  : Picture based subtitle format used on BDs/HD-DVDs
  96. Duration : 2 h 38 min
  97. Bit rate : 65.9 kb/s
  98. Count of elements : 4838
  99. Stream size : 74.6 MiB (0%)
  100. Title : 繁英双语
  101. Language : Chinese
  102. Default : No
  103. Forced : No
复制代码


杰伊·比姆/万岁毕姆 / 斗争万岁4k.Jai.Bhim.2021.2160p.AMZN.WEB-DL.DDP5.1.HDR.H265.10bit 4K电影下载

杰伊·比姆4K.Jai.Bhim.2021.2160p.AMZN.WEB-DL.HDR.H265.10bit.DDP5.1-简繁中字【4K HDR 17.85 GB】
杰伊·比姆4k.Jai.Bhim.2021.2160p.AMZN.WEB-DL.DDP5.1.HDR.H265.10bit-Hao4K.torrent (99.9 KB, 售价: 8 个K币)
回复

使用道具 举报

全部回复27

flaking 2

22-1-5 21:22

好片子,赞一个!!!
回复 支持 2 反对 0

使用道具 举报

hhhz 22-1-5 21:27 显示全部楼层

hhhz 3

22-1-5 21:27

通胀严重啊!
回复 支持 4 反对 0

使用道具 举报

就爱渔网 4

22-1-5 21:39

这就是我一直在找的好东西
回复 支持 1 反对 0

使用道具 举报

bbgrnnji 5

22-1-6 12:39

这个是一个好片子
回复 支持 反对

使用道具 举报

beihuigui123 6

22-1-6 13:23

币不值钱了,265的电影都要8个、20个。
回复 支持 1 反对 0

使用道具 举报

laoxu_23 7

22-1-6 13:37

附件下载不了?
回复 支持 6 反对 0

使用道具 举报

tsly 22-1-6 14:47 显示全部楼层

tsly 8

22-1-6 14:47

这个是部神片。
回复 支持 反对

使用道具 举报

18684833136 9

22-1-6 17:59

上来了就好,昨天搬运了一次,没成功。
回复 支持 反对

使用道具 举报

dengke118 10

22-1-6 18:19

谢谢分享,辛苦了楼主!!!
回复 支持 1 反对 0

使用道具 举报

caojiancao 11

22-1-6 22:20

附件无法下载,不知为何?
回复 支持 1 反对 0

使用道具 举报

18520199909 12

22-1-6 22:25

下载附件没反应
回复 支持 反对

使用道具 举报

静风JF 13

22-1-7 08:54

什么时候上原盘?
回复 支持 反对

使用道具 举报

天涯骑士秋洁 14

22-1-7 10:24

等到了 非常感谢
回复 支持 反对

使用道具 举报

AIFUFU 22-1-7 11:55 显示全部楼层

AIFUFU 15

22-1-7 11:55

看了一下介绍似乎不错,等等看有没有原盘下。
回复 支持 反对

使用道具 举报

xydr88 22-1-7 12:38 显示全部楼层

xydr88 16

22-1-7 12:38

下载了,没有中文字幕
回复 支持 反对

使用道具 举报

les5332295 17

22-1-8 00:07

这个是印度片吗
回复 支持 反对

使用道具 举报

吴摔锅 18

22-1-8 11:10

据说是深度辱印的片子,哈哈
回复 支持 反对

使用道具 举报

   发表回复

您需要登录后才可以回帖 登录 | 立即注册

返回列表 本版积分规则

  • 发布新帖

  • 客服/帮助

  • 手机APP

  • 返回顶部