微博 微信 APP

Hao4K影音

电影频道
电影封面:
片  名: 欢乐好声音2 4K
电影分类: 冒险 喜剧 动画 歌舞 
国  家: 美国 
年  代: 2021年
分 辨 率: 4K(3840x2160)
电影格式: MKV|REMUX 
画质标准: HDR 
音质编码: Dolby Digital Plus Audio 
电影声道: 5.1声道 
帧数/FPS: 23.976 帧
电影语言: 英文原版 
资源大小: 19.39 GB
导  演: 加斯·詹宁斯
豆瓣评分: 7.6 分
中文字幕: -
剧情简介: 今年年底佳节,照明娱乐全球卖座动画电影系列的全新篇章即将展开,有更伟大的梦想和更多超夯流行金曲。野心勃勃的无尾熊巴斯特穆恩,以及他旗下的全明星动物艺人,即将呈献史上最华丽耀眼的舞台大秀…而且是在绚烂夺目的世界娱乐之都举行。但是有一个难关:他们必须先说服全世界最孤僻的摇滚巨星-由音乐传奇人物波诺首度为动画片献声演出-加入他们的表演行列。
  巴斯特(金奖影帝马修麦康纳 配音)以及他旗下的艺人将他的新穆恩剧院,转变成当地最火红的表演场地,但是他现在有一个更大的野心,那就是在光芒万丈的红滩市的克里斯托塔剧院,举办一场全新歌舞大秀的首演会。
  完全没有任何娱乐圈的人脉可言,巴斯特和他旗下的艺人-包括总是忧心忡忡的猪妈妈萝希坦(金奖影后瑞丝薇斯朋 配音)、摇滚女豪猪爱希(史嘉蕾乔韩森 配音)、认真努力的大猩猩强尼(泰隆艾格顿 配音)、内向害羞的大象米娜(托蕾凯莉 配音),当然还有爱现猪仔刚特(尼克克罗尔 配音)-必须偷偷溜进由一匹冷血无情的娱乐大亨野狼吉米克里斯托(艾美奖得主巴比卡纳佛 配音)一手打造经营,举世闻名的克里斯托娱乐公司的办公室。
  为了得到克里斯托先生的注意被逼到狗急跳牆的刚特,突然灵光一闪,给了巴斯特一个超浮夸的点子,巴斯特也逼不得已採用了这个点子,那就是向克里斯托先生挂保证,他们全新的歌舞大秀将由传奇摇滚狮子歌王柯雷卡洛威(波诺 配音)领衔主演。但问题是,巴斯特从来没见过柯雷,而且这名传奇摇滚歌王早就在十几年前,因为痛失爱妻从音乐界引退,独自隐居了十几年,再也没有人见过他。
  当刚特正在帮助巴斯特设计出一场举世无双的舞台歌舞秀经典杰作,来自克里斯托先生的压力(以及可怕的威胁)也越来越大,巴斯特就展开一场寻找传奇摇滚狮子歌王柯雷卡洛威的大冒险,希望能够说服他重返舞台。原本只是巴斯特想要扬名立万的春秋大梦,却转变成一个现代寓言,提醒了每一个人,音乐的力量强大到足以疗癒一颗最悲伤的破碎的心。
星梦动物园2(港)/欢乐好声音2 4K.Sing.2.2021.2160p.WEB-DL.x265.10bit.HDR.DDP5.1.Atmos-4k电影信息
  1. Video
  2. ID : 1
  3. Format : HEVC
  4. Format/Info : High Efficiency Video Coding
  5. Format profile : Main 10@L5@High
  6. HDR format : SMPTE ST 2086, HDR10 compatible
  7. Codec ID : V_MPEGH/ISO/HEVC
  8. Duration : 1 h 49 min
  9. Bit rate : 24.5 Mb/s
  10. Width : 3 840 pixels
  11. Height : 2 074 pixels
  12. Display aspect ratio : 1.85:1
  13. Frame rate mode : Constant
  14. Frame rate : 23.976 FPS
  15. Color space : YUV
  16. Chroma subsampling : 4:2:0 (Type 2)
  17. Bit depth : 10 bits
  18. Bits/(Pixel*Frame) : 0.128
  19. Stream size : 18.8 GiB (97%)
  20. Default : Yes
  21. Forced : No
  22. Color range : Limited
  23. Color primaries : BT.2020
  24. Transfer characteristics : PQ
  25. Matrix coefficients : BT.2020 non-constant
  26. Mastering display color primaries : BT.2020
  27. Mastering display luminance : min: 0.0050 cd/m2, max: 1000 cd/m2
  28. Maximum Content Light Level : 1643 cd/m2
  29. Maximum Frame-Average Light Level : 942 cd/m2

  30. Audio
  31. ID : 2
  32. Format : E-AC-3 JOC
  33. Format/Info : Enhanced AC-3 with Joint Object Coding
  34. Commercial name : Dolby Digital Plus with Dolby Atmos
  35. Codec ID : A_EAC3
  36. Duration : 1 h 49 min
  37. Bit rate mode : Constant
  38. Bit rate : 768 kb/s
  39. Channel(s) : 6 channels
  40. Channel layout : L R C LFE Ls Rs
  41. Sampling rate : 48.0 kHz
  42. Frame rate : 31.250 FPS (1536 SPF)
  43. Compression mode : Lossy
  44. Stream size : 603 MiB (3%)
  45. Title : English
  46. Language : English
  47. Service kind : Complete Main
  48. Default : No
  49. Forced : No
  50. Complexity index : 16
  51. Number of dynamic objects : 15
  52. Bed channel count : 1 channel
  53. Bed channel configuration : LFE

  54. Text #1
  55. ID : 3
  56. Format : UTF-8
  57. Codec ID : S_TEXT/UTF8
  58. Codec ID/Info : UTF-8 Plain Text
  59. Duration : 1 h 44 min
  60. Bit rate : 81 b/s
  61. Count of elements : 2072
  62. Stream size : 62.1 KiB (0%)
  63. Language : English
  64. Default : Yes
  65. Forced : No

  66. Text #2
  67. ID : 4
  68. Format : UTF-8
  69. Codec ID : S_TEXT/UTF8
  70. Codec ID/Info : UTF-8 Plain Text
  71. Duration : 1 h 49 min
  72. Bit rate : 90 b/s
  73. Count of elements : 2403
  74. Stream size : 72.4 KiB (0%)
  75. Title : SDH
  76. Language : English
  77. Default : No
  78. Forced : No
复制代码

星梦动物园2(港)/欢乐好声音2 4K.Sing.2.2021.2160p.WEB-DL.x265.10bit.HDR.DDP5.1.Atmos-4K电影下载

欢乐好声音2 4K.Sing.2.2021.2160p.WEB-DL.x265.10bit.HDR.DDP5.1.Atmos 【4K HDR 19.39 GB】
[Hao4K]欢乐好声音2 4K.Sing.2.2021.2160p.WEB-DL.x265.10bit.HDR.DDP5.1.Atmos-NOGRP.torrent (24.87 KB, 售价: 3 个K币)
回复

使用道具 举报

全部回复2

madou 22-1-7 16:42 显示全部楼层

madou 2

22-1-7 16:42

这个有内嵌字幕吗
回复 支持 1 反对 0

使用道具 举报

大精灵 3

22-1-7 17:00

madou 发表于 22-1-7 16:42
这个有内嵌字幕吗

英文,中文估计明天就出来了
回复 支持 2 反对 0

使用道具 举报

   发表回复

您需要登录后才可以回帖 登录 | 立即注册

返回列表 本版积分规则

  • 发布新帖

  • 客服/帮助

  • 手机APP

  • 返回顶部