微博 微信 APP

Hao4K影音

电影频道
电影封面:
片  名: 挚爱家书4K
电影分类: 剧情 
国  家: 美国 
年  代: 2021年
分 辨 率: 4K(3840x2160)
电影格式: MKV|REMUX 
画质标准: HDR SDR 
音质编码: Dolby Digital Plus Audio 
电影声道: 5.1声道 
帧数/FPS: 23.976 帧
电影语言: 英文原版 
资源大小: 11.04 GB
导  演: 丹泽尔·华盛顿
豆瓣评分: 0 分
中文字幕: -
剧情简介: 影片改编自小说《对不起,来不及陪你长大》,讲述了普利策获奖记者戴娜·坎纳迪(Dana Canedy)和军官查尔斯·门罗·金(Charles Monroe King)的真实爱情故事。查尔斯在海外服役期间为防止在战事中阵亡,给他们刚刚出生的儿子乔丹写下了一封家书,旨在告诉他在没有父亲的成长过程中如何过上体面的生活,同时也包含了深刻的人生感悟,以及一个父亲对他从未谋面儿子的忠告和祈祷。
乔丹日志 / A Journal For Jordan/挚爱家书4K.A.Journal.For.Jordan.2021.2160p.WEB-DL.x265.10bit.HDR.DDP5.1-4k电影信息
  1. Video
  2. ID : 1
  3. Format : HEVC
  4. Format/Info : High Efficiency Video Coding
  5. Format profile : Main 10@L5@High
  6. HDR format : SMPTE ST 2086, HDR10 compatible
  7. Codec ID : V_MPEGH/ISO/HEVC
  8. Duration : 2 h 11 min
  9. Bit rate : 14.3 Mb/s
  10. Width : 3 840 pixels
  11. Height : 1 600 pixels
  12. Display aspect ratio : 2.40:1
  13. Frame rate mode : Constant
  14. Frame rate : 23.976 FPS
  15. Color space : YUV
  16. Chroma subsampling : 4:2:0 (Type 2)
  17. Bit depth : 10 bits
  18. Bits/(Pixel*Frame) : 0.097
  19. Stream size : 13.1 GiB (96%)
  20. Default : Yes
  21. Forced : No
  22. Color range : Limited
  23. Color primaries : BT.2020
  24. Transfer characteristics : PQ
  25. Matrix coefficients : BT.2020 non-constant
  26. Mastering display color primaries : BT.2020
  27. Mastering display luminance : min: 0.0050 cd/m2, max: 1000 cd/m2
  28. Maximum Content Light Level : 1100 cd/m2
  29. Maximum Frame-Average Light Level : 381 cd/m2

  30. Audio
  31. ID : 2
  32. Format : E-AC-3
  33. Format/Info : Enhanced AC-3
  34. Commercial name : Dolby Digital Plus
  35. Codec ID : A_EAC3
  36. Duration : 2 h 11 min
  37. Bit rate mode : Constant
  38. Bit rate : 640 kb/s
  39. Channel(s) : 6 channels
  40. Channel layout : L R C LFE Ls Rs
  41. Sampling rate : 48.0 kHz
  42. Frame rate : 31.250 FPS (1536 SPF)
  43. Compression mode : Lossy
  44. Stream size : 601 MiB (4%)
  45. Title : English
  46. Language : English
  47. Service kind : Complete Main
  48. Default : No
  49. Forced : No

  50. Text #1
  51. ID : 3
  52. Format : UTF-8
  53. Codec ID : S_TEXT/UTF8
  54. Codec ID/Info : UTF-8 Plain Text
  55. Duration : 2 h 8 min
  56. Bit rate : 53 b/s
  57. Count of elements : 1773
  58. Stream size : 50.4 KiB (0%)
  59. Title : English
  60. Language : English
  61. Default : Yes
  62. Forced : No

  63. Text #2
  64. ID : 4
  65. Format : UTF-8
  66. Codec ID : S_TEXT/UTF8
  67. Codec ID/Info : UTF-8 Plain Text
  68. Duration : 2 h 8 min
  69. Bit rate : 56 b/s
  70. Count of elements : 1836
  71. Stream size : 53.4 KiB (0%)
  72. Title : English [SDH]
  73. Language : English
  74. Default : No
  75. Forced : No

  76. Text #3
  77. ID : 5
  78. Format : UTF-8
  79. Codec ID : S_TEXT/UTF8
  80. Codec ID/Info : UTF-8 Plain Text
  81. Duration : 2 h 9 min
  82. Bit rate : 49 b/s
  83. Count of elements : 1462
  84. Stream size : 46.8 KiB (0%)
  85. Title : French
  86. Language : French
  87. Default : No
  88. Forced : No
复制代码

乔丹日志 / A Journal For Jordan/挚爱家书4K.Ghostbusters.Afterlife.2021.2160p.WEB-DL.x265.10bit.SDR.DDP5.1.Atmos-4K电影下载

挚爱家书4K.A.Journal.For.Jordan.2021.2160p.WEB-DL.x265.10bit.HDR.DDP5.1【4K HDR 13.68 GB】
[Hao4K]挚爱家书4K.A.Journal.For.Jordan.2021.2160p.WEB-DL.x265.10bit.HDR.DDP5.1-NOGRP.torrent (17.76 KB, 售价: 3 个K币)
回复

使用道具 举报

全部回复5

hhhz 22-1-11 21:13 显示全部楼层

hhhz 2

22-1-11 21:13

丹泽尔·华盛顿导演的影片,下来看看。
回复 支持 反对

使用道具 举报

money17 22-1-12 08:44 显示全部楼层

money17 3

22-1-12 08:44

丹泽尔·华盛顿是不是第一次做导演? 看看他的功力如何, 謝謝發文
回复 支持 反对

使用道具 举报

bbgrnnji 4

22-1-12 12:26

丹泽尔·华盛顿 也导演了
回复 支持 反对

使用道具 举报

勇往直前168 5

22-1-14 23:43

字幕还没找到
回复 支持 反对

使用道具 举报

chjcyc 22-1-15 10:49 显示全部楼层

chjcyc 6

22-1-15 10:49

没字幕呀
回复 支持 反对

使用道具 举报

   发表回复

您需要登录后才可以回帖 登录 | 立即注册

返回列表 本版积分规则

  • 发布新帖

  • 客服/帮助

  • 手机APP

  • 返回顶部