微博 微信 APP

Hao4K影音

电影频道
电影封面:
片  名: 丧尸崛起4K
电影分类: 科幻 恐怖 
国  家: 美国 
年  代: 2022
分 辨 率: 4K(3840x2160)
电影格式: MKV|REMUX 
画质标准: SDR 
音质编码: Dolby Digital Plus Audio 
电影声道: 5.1声道 
帧数/FPS: 23.976 帧
电影语言: 英文原版 
资源大小: 7.30 GB
导  演: 托马斯·丘吉尔
豆瓣评分: 0 分
中文字幕: -
剧情简介: A chemical blast at a military base sets off a supernatural disaster in this tense action-horror thriller. As Sgt. Dash tries to keep the peace at the local police station, the explosion unleashes a toxic acid rain.
丧尸崛起4K.The.Amityville.Uprising.2022.2160p.WEB-DL.x265.10bit.SDR.DD5.1-4k电影信息
  1. Video
  2. ID : 1
  3. Format : HEVC
  4. Format/Info : High Efficiency Video Coding
  5. Format profile : Main 10@L5@High
  6. Codec ID : V_MPEGH/ISO/HEVC
  7. Duration : 1 h 25 min
  8. Bit rate : 11.9 Mb/s
  9. Width : 3 832 pixels
  10. Height : 2 152 pixels
  11. Display aspect ratio : 16:9
  12. Frame rate mode : Constant
  13. Frame rate : 23.976 FPS
  14. Color space : YUV
  15. Chroma subsampling : 4:2:0
  16. Bit depth : 10 bits
  17. Bits/(Pixel*Frame) : 0.060
  18. Stream size : 7.07 GiB (97%)
  19. Default : Yes
  20. Forced : No
  21. Color range : Limited
  22. Color primaries : BT.709
  23. Transfer characteristics : BT.709
  24. Matrix coefficients : BT.709

  25. Audio
  26. ID : 2
  27. Format : AC-3
  28. Format/Info : Audio Coding 3
  29. Commercial name : Dolby Digital
  30. Codec ID : A_AC3
  31. Duration : 1 h 25 min
  32. Bit rate mode : Constant
  33. Bit rate : 384 kb/s
  34. Channel(s) : 6 channels
  35. Channel layout : L R C LFE Ls Rs
  36. Sampling rate : 48.0 kHz
  37. Frame rate : 31.250 FPS (1536 SPF)
  38. Compression mode : Lossy
  39. Stream size : 234 MiB (3%)
  40. Title : English
  41. Language : English
  42. Service kind : Complete Main
  43. Default : No
  44. Forced : No

  45. Text
  46. ID : 3
  47. Format : UTF-8
  48. Codec ID : S_TEXT/UTF8
  49. Codec ID/Info : UTF-8 Plain Text
  50. Duration : 1 h 16 min
  51. Bit rate : 64 b/s
  52. Count of elements : 1118
  53. Stream size : 36.4 KiB (0%)
  54. Language : English
  55. Default : Yes
  56. Forced : No
复制代码

丧尸崛起4K.The.Amityville.Uprising.2022.2160p.WEB-DL.x265.10bit.SDR.DD5.1-4K电影下载

丧尸崛起4K.The.Amityville.Uprising.2022.2160p.WEB-DL.x265.10bit.SDR.DD5.1【4K SDR 7.3 GB】
[Hao4K]丧尸崛起4K.The.Amityville.Uprising.2022.2160p.WEB-DL.x265.10bit.SDR.DD5.1-NOGRP.torrent (18.91 KB, 售价: 2 个K币)
回复

使用道具 举报

全部回复11

wajames 22-1-12 01:46 显示全部楼层

wajames 2

22-1-12 01:46

这种国外山寨片,感觉没什么看头,不过感谢上传
回复 支持 反对

使用道具 举报

lianxi68 3

22-1-12 07:52

有没有中文字幕?
回复 支持 反对

使用道具 举报

世爵39 4

22-1-12 09:08

lianxi68 发表于 22-1-12 07:52
有没有中文字幕?

刚刚找过,还没有找到中字幕
回复 支持 反对

使用道具 举报

gyw88 22-1-12 09:57 显示全部楼层

gyw88 5

22-1-12 09:57

感觉没什么看头,不过感谢上传
回复 支持 反对

使用道具 举报

auto68 22-1-12 10:00 显示全部楼层

auto68 6

22-1-12 10:00

IMDb RATING
3.8分
回复 支持 1 反对 0

使用道具 举报

一大群熊猫人 7

22-1-12 10:12

2022年的这么早就出来了是不是评分很低啊?
回复 支持 1 反对 0

使用道具 举报

bbgrnnji 8

22-1-12 12:25

这个是永恒的主题
回复 支持 反对

使用道具 举报

367083890 9

22-1-12 14:34

丧尸热过去了吧 不然怎么也不会被吐槽
回复 支持 反对

使用道具 举报

highrpmclub 10

22-1-12 15:42

喜欢丧尸类的片子,谢谢
回复 支持 反对

使用道具 举报

18520199909 11

22-1-12 16:25

新的片子一般都没有字幕的
回复 支持 反对

使用道具 举报

dengke118 12

22-1-12 18:27

谢谢分享,求中文字幕!
回复 支持 反对

使用道具 举报

   发表回复

您需要登录后才可以回帖 登录 | 立即注册

返回列表 本版积分规则

  • 发布新帖

  • 客服/帮助

  • 手机APP

  • 返回顶部