微博 微信 APP

Hao4K影音

电影频道
电影封面:
片  名: 精灵旅社4:变身大冒险4K
电影分类: 喜剧 奇幻 动画 
国  家: 美国 
年  代: 2022
分 辨 率: 4K(3840x2160)
电影格式: MKV|REMUX 
画质标准: HDR10 
音质编码: Dolby Digital Plus Audio 
电影声道: 5.1声道 
帧数/FPS: 23.976 帧
电影语言: 中文简体 中文繁体 英文原版 
资源大小: 9.37 GB
导  演: 德里克·德莱蒙 / 詹妮弗·克鲁斯卡
豆瓣评分: 0 分
中文字幕: -
剧情简介: 《精灵旅社》系列大结局。一场意外使得精灵家族全员变身。为了避免身体永久互换,他们环游世界去寻找治疗方法,在人间开启了一段疯狂冒险,种种奇遇引发笑料不断。
精灵旅社4:人间大冒险 / 鬼灵精怪大酒店:怪兽变错身(港) / 尖叫旅社:变形怪兽(台) / Hotel Transylvania 4/ 精灵旅社4:变身大冒险4K.Hotel.Transylvania.4.Transformania.2022.2160p.AMZN.WEB-DL.x265.10bit.HDR10Plus.DDP5.1.Atmos-4k电影信息
  1. Video
  2. ID : 1
  3. Format : HEVC
  4. Format/Info : High Efficiency Video Coding
  5. Format profile : Main 10@L5@Main
  6. HDR format : SMPTE ST 2094 App 4, Version 1, HDR10+ Profile B compatible
  7. Codec ID : V_MPEGH/ISO/HEVC
  8. Duration : 1 h 27 min
  9. Bit rate : 14.4 Mb/s
  10. Width : 3 840 pixels
  11. Height : 2 080 pixels
  12. Display aspect ratio : 1.85:1
  13. Frame rate mode : Constant
  14. Frame rate : 23.976 (24000/1001) FPS
  15. Color space : YUV
  16. Chroma subsampling : 4:2:0
  17. Bit depth : 10 bits
  18. Bits/(Pixel*Frame) : 0.075
  19. Stream size : 8.80 GiB (95%)
  20. Default : Yes
  21. Forced : No
  22. Color range : Limited
  23. Color primaries : BT.2020
  24. Transfer characteristics : PQ
  25. Matrix coefficients : BT.2020 non-constant
  26. Mastering display color primaries : Display P3
  27. Mastering display luminance : min: 0.0001 cd/m2, max: 1000 cd/m2
  28. Maximum Content Light Level : 429 cd/m2
  29. Maximum Frame-Average Light Level : 323 cd/m2

  30. Audio
  31. ID : 2
  32. Format : E-AC-3 JOC
  33. Format/Info : Enhanced AC-3 with Joint Object Coding
  34. Commercial name : Dolby Digital Plus with Dolby Atmos
  35. Codec ID : A_EAC3
  36. Duration : 1 h 27 min
  37. Bit rate mode : Constant
  38. Bit rate : 448 kb/s
  39. Channel(s) : 6 channels
  40. Channel layout : L R C LFE Ls Rs
  41. Sampling rate : 48.0 kHz
  42. Frame rate : 31.250 FPS (1536 SPF)
  43. Compression mode : Lossy
  44. Stream size : 280 MiB (3%)
  45. Language : English
  46. Service kind : Complete Main
  47. Default : Yes
  48. Forced : No
  49. Complexity index : 16
  50. Number of dynamic objects : 15
  51. Bed channel count : 1 channel
  52. Bed channel configuration : LFE

  53. Text #1
  54. ID : 3
  55. Format : UTF-8
  56. Codec ID : S_TEXT/UTF8
  57. Codec ID/Info : UTF-8 Plain Text
  58. Title : English
  59. Language : English
  60. Default : No
  61. Forced : No

  62. Text #2
  63. ID : 4
  64. Format : UTF-8
  65. Codec ID : S_TEXT/UTF8
  66. Codec ID/Info : UTF-8 Plain Text
  67. Title : Arabic
  68. Language : Arabic
  69. Default : No
  70. Forced : No

  71. Text #3
  72. ID : 5
  73. Format : UTF-8
  74. Codec ID : S_TEXT/UTF8
  75. Codec ID/Info : UTF-8 Plain Text
  76. Title : Bulgarian (Bulgaria)
  77. Language : Bulgarian
  78. Default : No
  79. Forced : No

  80. Text #4
  81. ID : 6
  82. Format : UTF-8
  83. Codec ID : S_TEXT/UTF8
  84. Codec ID/Info : UTF-8 Plain Text
  85. Title : Catalan (Spain)
  86. Language : Catalan
  87. Default : No
  88. Forced : No

  89. Text #5
  90. ID : 7
  91. Format : UTF-8
  92. Codec ID : S_TEXT/UTF8
  93. Codec ID/Info : UTF-8 Plain Text
  94. Title : Chinese Simplified
  95. Language : Chinese
  96. Default : No
  97. Forced : No

  98. Text #6
  99. ID : 8
  100. Format : UTF-8
  101. Codec ID : S_TEXT/UTF8
  102. Codec ID/Info : UTF-8 Plain Text
  103. Title : Chinese Traditional
  104. Language : Chinese
  105. Default : No
  106. Forced : No
复制代码
精灵旅社4:人间大冒险 / 鬼灵精怪大酒店:怪兽变错身(港) / 尖叫旅社:变形怪兽(台) / Hotel Transylvania 4/ 精灵旅社4:变身大冒险4K.Hotel.Transylvania.4.Transformania.2022.2160p.AMZN.WEB-DL.x265.10bit.HDR10Plus.DDP5.1.Atmos-4K电影下载

精灵旅社4:变身大冒险4K.Hotel.Transylvania.4.Transformania.2022.2160p.AMZN.WEB-DL.x265.10bit.HDR10Plus.DDP5.1.Atmos-简繁中字【4K HDR 9.37 GB】
[Hao4K]精灵旅社4:变身大冒险4K.Hotel.Transylvania.4.Transformania.2022.2160p.AMZN.WEB-DL.x265.10bit.HDR10Plus.DDP5.1.Atmos-NAISU.torrent (24.28 KB, 售价: 3 个K币)
回复

使用道具 举报

全部回复23

法兰客 2

22-1-14 11:33

谢谢分享  家里的小伙伴很喜欢这一系列
回复 支持 反对

使用道具 举报

aandrew830314 3

22-1-14 12:54


你可以用Xdown获取资源,大家一起加速就好了啊!
回复 支持 4 反对 0

使用道具 举报

HumanTarget 4

22-1-14 13:23

这个系列电影,我还蛮喜欢的,晚上先带着儿子重温一下前三部
回复 支持 反对

使用道具 举报

faraway1116 5

22-1-14 14:45

迅雷下载不了

回复 支持 1 反对 0

使用道具 举报

玄离大人 6

22-1-14 14:47

uTorrent可以呀
回复 支持 反对

使用道具 举报

dgmgso 22-1-14 14:48 显示全部楼层

dgmgso 7

22-1-14 14:48

抽空看看,感谢分享
回复 支持 反对

使用道具 举报

jheng 22-1-14 15:19 显示全部楼层

jheng 8

22-1-14 15:19

谢谢分享,小朋友正好寒假可以看。
回复 支持 反对

使用道具 举报

映儿 22-1-14 15:55 Hao4K手机版 显示全部楼层

映儿 9

22-1-14 15:55

sirmike 发表于 22-1-14 11:20
迅雷无法下载

用QB吧!
回复 支持 反对

使用道具 举报

jzy878 22-1-14 20:09 显示全部楼层

jzy878 10

22-1-14 20:09

谢谢分享 什么时候有杜比的
回复 支持 反对

使用道具 举报

bgsdhTC 22-1-14 20:43 显示全部楼层

bgsdhTC 11

22-1-14 20:43

一直在追的动画系列,因宝而追
回复 支持 反对

使用道具 举报

yyfsun 22-1-14 22:34 显示全部楼层

yyfsun 12

22-1-14 22:34

下载不了,说是“应版权方要求,无法下载”,白白浪费了三个金币:(
回复 支持 1 反对 0

使用道具 举报

Benz2019 13

22-1-14 23:22

下载完了,用PotPlayer无法播放······
回复 支持 1 反对 0

使用道具 举报

ethanooo 14

22-1-15 14:09

谢谢大佬分享
回复 支持 反对

使用道具 举报

oliver125 15

22-1-15 18:27

用迅雷下载不了的可以用其他下载工具啊,比特彗星就可以,速度还凑合吧。
回复 支持 反对

使用道具 举报

我要飛 16

22-1-16 01:20

可以下載,有3.4m/s
回复 支持 反对

使用道具 举报

cnxpdavid 17

22-1-16 09:03

谢谢分享,正好小朋友们放假了!
回复 支持 反对

使用道具 举报

antmasson 18

22-1-17 13:05

nice,xiexei 前三部都很喜欢 这 部应该也不错
回复 支持 反对

使用道具 举报

   发表回复

您需要登录后才可以回帖 登录 | 立即注册

返回列表 本版积分规则

  • 发布新帖

  • 客服/帮助

  • 手机APP

  • 返回顶部