微博 微信 APP

Hao4K影音

电影频道
电影封面:
片  名: 性吸引力4K
电影分类: 喜剧 
国  家: 美国 
年  代: 2022
分 辨 率: 4K(3840x2160)
电影格式: MKV|REMUX 
画质标准: SDR 
音质编码: Dolby Digital Plus Audio 
电影声道: 5.1声道 
帧数/FPS: 23.976 帧
电影语言: 英文原版 
资源大小: 8.13 GB
导  演: Talia Osteen
豆瓣评分: 0 分
中文字幕: -
剧情简介:  米卡·阿卜杜拉(《青春相对论》)、杰克·索特([社交网络追爱记])将主演青春喜剧[吸引力](Sex Appeal,暂译)。该片由塔莉亚·奥斯汀([帮帮我])执导,塔特·汉约克操刀剧本。故事讲述功成名就的女明星艾弗里·汉森-怀特与男友异地相恋,当男友暗示想在即将到来的舞会上进一步发展两人的关系后,她开始面对自己的欲望并且学习爱情的模式,过程中,她意识到感情需要的是感性而不是理性。
性感的吸引力/性吸引力4K.Sex.Appeal.2022.2160p.HULU.WEB-DL.x265.10bit.SDR.DDP5.1-4k电影信息
  1. Video
  2. ID : 1
  3. Format : HEVC
  4. Format/Info : High Efficiency Video Coding
  5. Format profile : Main 10@L5.1@Main
  6. Codec ID : V_MPEGH/ISO/HEVC
  7. Duration : 1 h 30 min
  8. Bit rate : 12.6 Mb/s
  9. Width : 3 840 pixels
  10. Height : 2 160 pixels
  11. Display aspect ratio : 16:9
  12. Frame rate mode : Constant
  13. Frame rate : 24.000 FPS
  14. Color space : YUV
  15. Chroma subsampling : 4:2:0
  16. Bit depth : 10 bits
  17. Bits/(Pixel*Frame) : 0.063
  18. Stream size : 7.97 GiB (98%)
  19. Default : Yes
  20. Forced : No

  21. Audio
  22. ID : 2
  23. Format : E-AC-3
  24. Format/Info : Enhanced AC-3
  25. Commercial name : Dolby Digital Plus
  26. Codec ID : A_EAC3
  27. Duration : 1 h 30 min
  28. Bit rate mode : Constant
  29. Bit rate : 256 kb/s
  30. Channel(s) : 6 channels
  31. Channel layout : L R C LFE Ls Rs
  32. Sampling rate : 48.0 kHz
  33. Frame rate : 31.250 FPS (1536 SPF)
  34. Compression mode : Lossy
  35. Stream size : 166 MiB (2%)
  36. Language : English
  37. Service kind : Complete Main
  38. Default : Yes
  39. Forced : No

  40. Text #1
  41. ID : 3
  42. Format : UTF-8
  43. Codec ID : S_TEXT/UTF8
  44. Codec ID/Info : UTF-8 Plain Text
  45. Duration : 1 h 30 min
  46. Bit rate : 89 b/s
  47. Count of elements : 1687
  48. Stream size : 59.0 KiB (0%)
  49. Language : English
  50. Default : No
  51. Forced : No

  52. Text #2
  53. ID : 4
  54. Format : UTF-8
  55. Codec ID : S_TEXT/UTF8
  56. Codec ID/Info : UTF-8 Plain Text
  57. Duration : 1 h 30 min
  58. Bit rate : 99 b/s
  59. Count of elements : 1866
  60. Stream size : 65.5 KiB (0%)
  61. Title : SDH
  62. Language : English
  63. Default : No
  64. Forced : No

  65. Text #3
  66. ID : 5
  67. Format : UTF-8
  68. Codec ID : S_TEXT/UTF8
  69. Codec ID/Info : UTF-8 Plain Text
  70. Duration : 1 h 28 min
  71. Bit rate : 105 b/s
  72. Count of elements : 1869
  73. Stream size : 68.9 KiB (0%)
  74. Title : SDH
  75. Language : Spanish
  76. Default : No
  77. Forced : No
复制代码

性感的吸引力/性吸引力4K.Sex.Appeal.2022.2160p.HULU.WEB-DL.x265.10bit.SDR.DDP5.1-4K电影下载

性吸引力4K.Sex.Appeal.2022.2160p.HULU.WEB-DL.x265.10bit.SDR.DDP5.1【4K SDR 8.13 GB】
[Hao4K]性吸引力4K.Sex.Appeal.2022.2160p.HULU.WEB-DL.x265.10bit.SDR.DDP5.1-TEPES.torrent (20.96 KB, 售价: 2 个K币)
回复

使用道具 举报

全部回复8

dengke118 2

22-1-14 20:06

谢谢分享,顶你!!!
回复 支持 反对

使用道具 举报

BORA1.6 22-1-14 21:55 显示全部楼层

BORA1.6 3

22-1-14 21:55


谢谢分享
回复 支持 反对

使用道具 举报

chopiny 22-1-15 05:31 显示全部楼层

chopiny 4

22-1-15 05:31

找不到字幕
回复 支持 1 反对 0

使用道具 举报

24531as 22-1-15 05:46 显示全部楼层

24531as 5

22-1-15 05:46


谢谢分享,顶你!!!
回复 支持 反对

使用道具 举报

lefeixx 22-1-15 15:45 显示全部楼层

lefeixx 6

22-1-15 15:45

如此精彩的影片我喜欢!
回复 支持 反对

使用道具 举报

dg540 22-1-17 07:45 Hao4K手机版 显示全部楼层

dg540 7

22-1-17 07:45

感谢楼主分享的新片。
回复 支持 反对

使用道具 举报

renq0123 8

22-1-17 09:11

影片不错  喜剧性比较强
回复 支持 反对

使用道具 举报

xcs-xj 22-1-17 15:27 显示全部楼层

xcs-xj 9

22-1-17 15:27

字幕呢
回复 支持 反对

使用道具 举报

   发表回复

您需要登录后才可以回帖 登录 | 立即注册

返回列表 本版积分规则

  • 发布新帖

  • 客服/帮助

  • 手机APP

  • 返回顶部