专注4K家庭影音, 服务千万家庭影音发烧友!

浩瀚的夜晚4k The.Vast.Of.Night.2019.HDR.2160p.WEB.h265电影资源下载

 关闭
老顽童 发表于 2020-6-4 09:10:27 | 显示全部楼层
电影频道
电影封面:
片  名: 浩瀚的夜晚4k
电影分类: 科幻 惊悚 悬疑 奇幻 
国  家: 美国 
年  代: 2019年
分 辨 率: 4K(3840x2160)
电影格式: MKV|REMUX 
画质标准: HDR HDR10 
音质编码: Dolby Digital Plus Audio 
电影声道: 5.1声道 其他 
帧数/FPS: FPS
电影语言: 英文原版 
资源大小: 19.34 GB
导  演: Andrew Patterson
豆瓣评分: 5.8 分
中文字幕: -
剧情简介: 故事发生在20世纪50年代的新墨西哥州,一个年轻的总机操作员和电台DJ发现了一个奇怪的频率,这个频率可能会永远改变他们的生活、他们的小镇和整个地球。《夜之无极》落入了《暮光之城》的兔子洞,通过掉落的电话、调幅无线电信号、被遗忘在图书馆里的秘密磁带卷、交换机、交叉的补线和一个匿名电话,他小心翼翼地将一个寻寻式的寻人故事编织在一起。《夜之无极》通过令人困惑的全程跟踪镜头、快速的对话和完美的时代术语,将观众带入一个远离外界的时代和小镇。它的神秘只呈现给那些好奇和有足够耐心去倾听的人。
浩瀚的夜晚4k The.Vast.Of.Night.2019.HDR.2160p.WEB.h265电影信息
  1. Video
  2. ID : 1
  3. Format : HEVC
  4. Format/Info : High Efficiency Video Coding
  5. Format profile : Main 10@L5.1@High
  6. Codec ID : V_MPEGH/ISO/HEVC
  7. Duration : 1 h 30 min
  8. Bit rate : 30.0 Mb/s
  9. Width : 3 840 pixels
  10. Height : 1 600 pixels
  11. Display aspect ratio : 2.40:1
  12. Frame rate mode : Constant
  13. Frame rate : 23.976 (24000/1001) FPS
  14. Color space : YUV
  15. Chroma subsampling : 4:2:0
  16. Bit depth : 10 bits
  17. Bits/(Pixel*Frame) : 0.204
  18. Stream size : 19.1 GiB (98%)
  19. Writing library : x265 3.3+10-g08d895bb6:[Windows][GCC 10.0.1][64 bit] 10bit
  20. Encoding settings : cpuid=1111039 / frame-threads=4 / numa-pools=24 / wpp / no-pmode / no-pme / no-psnr / no-ssim / log-level=2 / input-csp=1 / input-res=3840x1600 / interlace=0 / total-frames=130886 / level-idc=51 / high-tier=1 / uhd-bd=0 / ref=5 / no-allow-non-conformance / repeat-headers / annexb / aud / hrd / info / hash=0 / no-temporal-layers / open-gop / min-keyint=23 / keyint=250 / gop-lookahead=0 / bframes=8 / b-adapt=2 / b-pyramid / bframe-bias=0 / rc-lookahead=40 / lookahead-slices=8 / scenecut=40 / hist-scenecut=0 / radl=0 / no-splice / no-intra-refresh / ctu=64 / min-cu-size=8 / no-rect / no-amp / max-tu-size=32 / tu-inter-depth=4 / tu-intra-depth=4 / limit-tu=4 / rdoq-level=0 / dynamic-rd=0.00 / no-ssim-rd / signhide / no-tskip / nr-intra=0 / nr-inter=0 / no-constrained-intra / strong-intra-smoothing / max-merge=4 / limit-refs=1 / no-limit-modes / me=1 / subme=5 / merange=57 / temporal-mvp / no-frame-dup / no-hme / weightp / weightb / no-analyze-src-pics / deblock=-3:-3 / no-sao / no-sao-non-deblock / rd=4 / selective-sao=0 / early-skip / rskip / no-fast-intra / no-tskip-fast / no-cu-lossless / b-intra / no-splitrd-skip / rdpenalty=0 / psy-rd=2.00 / psy-rdoq=0.00 / no-rd-refine / no-lossless / cbqpoffs=0 / crqpoffs=0 / rc=crf / crf=19.0 / qcomp=0.60 / qpstep=4 / stats-write=0 / stats-read=0 / vbv-maxrate=160000 / vbv-bufsize=160000 / vbv-init=0.9 / crf-max=0.0 / crf-min=0.0 / ipratio=1.30 / pbratio=1.20 / aq-mode=1 / aq-strength=0.85 / no-cutree / zone-count=0 / no-strict-cbr / qg-size=32 / no-rc-grain / qpmax=69 / qpmin=0 / no-const-vbv / sar=1 / overscan=0 / videoformat=5 / range=0 / colorprim=1 / transfer=1 / colormatrix=1 / chromaloc=0 / display-window=0 / cll=0,0 / min-luma=0 / max-luma=1023 / log2-max-poc-lsb=8 / vui-timing-info / vui-hrd-info / slices=1 / no-opt-qp-pps / no-opt-ref-list-length-pps / no-multi-pass-opt-rps / scenecut-bias=0.05 / hist-threshold=0.01 / no-opt-cu-delta-qp / no-aq-motion / no-hdr10 / no-hdr10-opt / no-dhdr10-opt / no-idr-recovery-sei / analysis-reuse-level=0 / analysis-save-reuse-level=0 / analysis-load-reuse-level=0 / scale-factor=0 / refine-intra=0 / refine-inter=0 / refine-mv=1 / refine-ctu-distortion=0 / no-limit-sao / ctu-info=0 / no-lowpass-dct / refine-analysis-type=0 / copy-pic=1 / max-ausize-factor=1.0 / no-dynamic-refine / no-single-sei / no-hevc-aq / no-svt / no-field / qp-adaptation-range=1.00 / no-scenecut-aware-qpconformance-window-offsets / right=0 / bottom=0 / decoder-max-rate=0
  21. Default : Yes
  22. Forced : No
  23. Color range : Limited
  24. Color primaries : BT.709
  25. Transfer characteristics : BT.709
  26. Matrix coefficients : BT.709

  27. Audio
  28. ID : 2
  29. Format : E-AC-3
  30. Format/Info : Enhanced AC-3
  31. Commercial name : Dolby Digital Plus
  32. Codec ID : A_EAC3
  33. Duration : 1 h 30 min
  34. Bit rate mode : Constant
  35. Bit rate : 640 kb/s
  36. Channel(s) : 6 channels
  37. Channel layout : L R C LFE Ls Rs
  38. Sampling rate : 48.0 kHz
  39. Frame rate : 31.250 FPS (1536 SPF)
  40. Compression mode : Lossy
  41. Stream size : 416 MiB (2%)
  42. Language : English
  43. Service kind : Complete Main
  44. Default : Yes
  45. Forced : No

  46. Text #1
  47. ID : 3
  48. Format : UTF-8
  49. Codec ID : S_TEXT/UTF8
  50. Codec ID/Info : UTF-8 Plain Text
  51. Duration : 1 h 20 min
  52. Bit rate : 99 b/s
  53. Count of elements : 1351
  54. Stream size : 58.7 KiB (0%)
  55. Language : English
  56. Default : No
  57. Forced : No

  58. Text #2
  59. ID : 4
  60. Format : UTF-8
  61. Codec ID : S_TEXT/UTF8
  62. Codec ID/Info : UTF-8 Plain Text
  63. Duration : 1 h 23 min
  64. Bit rate : 102 b/s
  65. Count of elements : 1447
  66. Stream size : 62.9 KiB (0%)
  67. Title : SDH
  68. Language : English
  69. Default : No
  70. Forced : No

  71. Text #3
  72. ID : 5
  73. Format : UTF-8
  74. Codec ID : S_TEXT/UTF8
  75. Codec ID/Info : UTF-8 Plain Text
  76. Duration : 1 h 29 min
  77. Bit rate : 117 b/s
  78. Count of elements : 1608
  79. Stream size : 77.4 KiB (0%)
  80. Language : Arabic
  81. Default : No
  82. Forced : No

  83. Text #4
  84. ID : 6
  85. Format : UTF-8
  86. Codec ID : S_TEXT/UTF8
  87. Codec ID/Info : UTF-8 Plain Text
  88. Duration : 1 h 29 min
  89. Bit rate : 85 b/s
  90. Count of elements : 1602
  91. Stream size : 56.0 KiB (0%)
  92. Language : Danish
  93. Default : No
  94. Forced : No

  95. Text #5
  96. ID : 7
  97. Format : UTF-8
  98. Codec ID : S_TEXT/UTF8
  99. Codec ID/Info : UTF-8 Plain Text
  100. Duration : 1 h 29 min
  101. Bit rate : 80 b/s
  102. Count of elements : 1580
  103. Stream size : 53.2 KiB (0%)
  104. Language : German
  105. Default : No
  106. Forced : No

  107. Text #6
  108. ID : 8
  109. Format : UTF-8
  110. Codec ID : S_TEXT/UTF8
  111. Codec ID/Info : UTF-8 Plain Text
  112. Duration : 1 h 29 min
  113. Bit rate : 82 b/s
  114. Count of elements : 1603
  115. Stream size : 54.1 KiB (0%)
  116. Title : Latinoamérica
  117. Language : Spanish
  118. Default : No
  119. Forced : No

  120. Text #7
  121. ID : 9
  122. Format : UTF-8
  123. Codec ID : S_TEXT/UTF8
  124. Codec ID/Info : UTF-8 Plain Text
  125. Duration : 1 h 29 min
  126. Bit rate : 70 b/s
  127. Count of elements : 1307
  128. Stream size : 46.6 KiB (0%)
  129. Title : España
  130. Language : Spanish
  131. Default : No
  132. Forced : No

  133. Text #8
  134. ID : 10
  135. Format : UTF-8
  136. Codec ID : S_TEXT/UTF8
  137. Codec ID/Info : UTF-8 Plain Text
  138. Duration : 1 h 29 min
  139. Bit rate : 76 b/s
  140. Count of elements : 1490
  141. Stream size : 50.5 KiB (0%)
  142. Language : Finnish
  143. Default : No
  144. Forced : No

  145. Text #9
  146. ID : 11
  147. Format : UTF-8
  148. Codec ID : S_TEXT/UTF8
  149. Codec ID/Info : UTF-8 Plain Text
  150. Duration : 1 h 29 min
  151. Bit rate : 84 b/s
  152. Count of elements : 1570
  153. Stream size : 55.2 KiB (0%)
  154. Language : fil
  155. Default : No
  156. Forced : No

  157. Text #10
  158. ID : 12
  159. Format : UTF-8
  160. Codec ID : S_TEXT/UTF8
  161. Codec ID/Info : UTF-8 Plain Text
  162. Duration : 1 h 29 min
  163. Bit rate : 76 b/s
  164. Count of elements : 1572
  165. Stream size : 50.5 KiB (0%)
  166. Language : French
  167. Default : No
  168. Forced : No

  169. Text #11
  170. ID : 13
  171. Format : UTF-8
  172. Codec ID : S_TEXT/UTF8
  173. Codec ID/Info : UTF-8 Plain Text
  174. Duration : 1 h 29 min
  175. Bit rate : 115 b/s
  176. Count of elements : 1610
  177. Stream size : 75.8 KiB (0%)
  178. Language : Hebrew
  179. Default : No
  180. Forced : No

  181. Text #12
  182. ID : 14
  183. Format : UTF-8
  184. Codec ID : S_TEXT/UTF8
  185. Codec ID/Info : UTF-8 Plain Text
  186. Duration : 1 h 29 min
  187. Bit rate : 204 b/s
  188. Count of elements : 1611
  189. Stream size : 134 KiB (0%)
  190. Language : Hindi
  191. Default : No
  192. Forced : No

  193. Text #13
  194. ID : 15
  195. Format : UTF-8
  196. Codec ID : S_TEXT/UTF8
  197. Codec ID/Info : UTF-8 Plain Text
  198. Duration : 1 h 29 min
  199. Bit rate : 83 b/s
  200. Count of elements : 1606
  201. Stream size : 54.8 KiB (0%)
  202. Language : Indonesian
  203. Default : No
  204. Forced : No

  205. Text #14
  206. ID : 16
  207. Format : UTF-8
  208. Codec ID : S_TEXT/UTF8
  209. Codec ID/Info : UTF-8 Plain Text
  210. Duration : 1 h 29 min
  211. Bit rate : 80 b/s
  212. Count of elements : 1390
  213. Stream size : 53.1 KiB (0%)
  214. Language : Italian
  215. Default : No
  216. Forced : No

  217. Text #15
  218. ID : 17
  219. Format : UTF-8
  220. Codec ID : S_TEXT/UTF8
  221. Codec ID/Info : UTF-8 Plain Text
  222. Duration : 1 h 29 min
  223. Bit rate : 59 b/s
  224. Count of elements : 1388
  225. Stream size : 39.1 KiB (0%)
  226. Language : Japanese
  227. Default : No
  228. Forced : No

  229. Text #16
  230. ID : 18
  231. Format : UTF-8
  232. Codec ID : S_TEXT/UTF8
  233. Codec ID/Info : UTF-8 Plain Text
  234. Duration : 1 h 29 min
  235. Bit rate : 96 b/s
  236. Count of elements : 1601
  237. Stream size : 63.6 KiB (0%)
  238. Language : Korean
  239. Default : No
  240. Forced : No

  241. Text #17
  242. ID : 19
  243. Format : UTF-8
  244. Codec ID : S_TEXT/UTF8
  245. Codec ID/Info : UTF-8 Plain Text
  246. Duration : 1 h 29 min
  247. Bit rate : 87 b/s
  248. Count of elements : 1604
  249. Stream size : 57.4 KiB (0%)
  250. Language : Malay
  251. Default : No
  252. Forced : No

  253. Text #18
  254. ID : 20
  255. Format : UTF-8
  256. Codec ID : S_TEXT/UTF8
  257. Codec ID/Info : UTF-8 Plain Text
  258. Duration : 1 h 29 min
  259. Bit rate : 73 b/s
  260. Count of elements : 1601
  261. Stream size : 48.6 KiB (0%)
  262. Language : Norwegian Bokmal
  263. Default : No
  264. Forced : No

  265. Text #19
  266. ID : 21
  267. Format : UTF-8
  268. Codec ID : S_TEXT/UTF8
  269. Codec ID/Info : UTF-8 Plain Text
  270. Duration : 1 h 29 min
  271. Bit rate : 72 b/s
  272. Count of elements : 1391
  273. Stream size : 47.7 KiB (0%)
  274. Language : Dutch
  275. Default : No
  276. Forced : No

  277. Text #20
  278. ID : 22
  279. Format : UTF-8
  280. Codec ID : S_TEXT/UTF8
  281. Codec ID/Info : UTF-8 Plain Text
  282. Duration : 1 h 29 min
  283. Bit rate : 78 b/s
  284. Count of elements : 1591
  285. Stream size : 51.5 KiB (0%)
  286. Language : Polish
  287. Default : No
  288. Forced : No

  289. Text #21
  290. ID : 23
  291. Format : UTF-8
  292. Codec ID : S_TEXT/UTF8
  293. Codec ID/Info : UTF-8 Plain Text
  294. Duration : 1 h 29 min
  295. Bit rate : 80 b/s
  296. Count of elements : 1599
  297. Stream size : 52.9 KiB (0%)
  298. Title : Brasil
  299. Language : Portuguese
  300. Default : No
  301. Forced : No

  302. Text #22
  303. ID : 24
  304. Format : UTF-8
  305. Codec ID : S_TEXT/UTF8
  306. Codec ID/Info : UTF-8 Plain Text
  307. Duration : 1 h 29 min
  308. Bit rate : 78 b/s
  309. Count of elements : 1551
  310. Stream size : 51.3 KiB (0%)
  311. Title : Portugal
  312. Language : Portuguese
  313. Default : No
  314. Forced : No

  315. Text #23
  316. ID : 25
  317. Format : UTF-8
  318. Codec ID : S_TEXT/UTF8
  319. Codec ID/Info : UTF-8 Plain Text
  320. Duration : 1 h 29 min
  321. Bit rate : 138 b/s
  322. Count of elements : 1605
  323. Stream size : 90.8 KiB (0%)
  324. Language : Russian
  325. Default : No
  326. Forced : No

  327. Text #24
  328. ID : 26
  329. Format : UTF-8
  330. Codec ID : S_TEXT/UTF8
  331. Codec ID/Info : UTF-8 Plain Text
  332. Duration : 1 h 29 min
  333. Bit rate : 84 b/s
  334. Count of elements : 1600
  335. Stream size : 55.5 KiB (0%)
  336. Language : Swedish
  337. Default : No
  338. Forced : No

  339. Text #25
  340. ID : 27
  341. Format : UTF-8
  342. Codec ID : S_TEXT/UTF8
  343. Codec ID/Info : UTF-8 Plain Text
  344. Duration : 1 h 29 min
  345. Bit rate : 244 b/s
  346. Count of elements : 1608
  347. Stream size : 161 KiB (0%)
  348. Language : Tamil
  349. Default : No
  350. Forced : No

  351. Text #26
  352. ID : 28
  353. Format : UTF-8
  354. Codec ID : S_TEXT/UTF8
  355. Codec ID/Info : UTF-8 Plain Text
  356. Duration : 1 h 29 min
  357. Bit rate : 187 b/s
  358. Count of elements : 1608
  359. Stream size : 123 KiB (0%)
  360. Language : Telugu
  361. Default : No
  362. Forced : No

  363. Text #27
  364. ID : 29
  365. Format : UTF-8
  366. Codec ID : S_TEXT/UTF8
  367. Codec ID/Info : UTF-8 Plain Text
  368. Duration : 1 h 29 min
  369. Bit rate : 182 b/s
  370. Count of elements : 1608
  371. Stream size : 120 KiB (0%)
  372. Language : Thai
  373. Default : No
  374. Forced : No

  375. Text #28
  376. ID : 30
  377. Format : UTF-8
  378. Codec ID : S_TEXT/UTF8
  379. Codec ID/Info : UTF-8 Plain Text
  380. Duration : 1 h 29 min
  381. Bit rate : 81 b/s
  382. Count of elements : 1603
  383. Stream size : 53.3 KiB (0%)
  384. Language : Turkish
  385. Default : No
  386. Forced : No

  387. Text #29
  388. ID : 31
  389. Format : UTF-8
  390. Codec ID : S_TEXT/UTF8
  391. Codec ID/Info : UTF-8 Plain Text
  392. Duration : 1 h 29 min
  393. Bit rate : 79 b/s
  394. Count of elements : 1603
  395. Stream size : 52.0 KiB (0%)
  396. Title : 中文(简体)
  397. Language : Chinese
  398. Default : No
  399. Forced : No

  400. Text #30
  401. ID : 32
  402. Format : UTF-8
  403. Codec ID : S_TEXT/UTF8
  404. Codec ID/Info : UTF-8 Plain Text
  405. Duration : 1 h 29 min
  406. Bit rate : 81 b/s
  407. Count of elements : 1605
  408. Stream size : 53.3 KiB (0%)
  409. Title : 中文(繁體)
  410. Language : Chinese
  411. Default : No
  412. Forced : No

  413. Menu
  414. 00:00:00.000 : en:Amazon Original
  415. 00:00:21.000 : en:Studio Logo
  416. 00:00:30.000 : en:Opening Credits
  417. 00:00:48.000 : en:Small talk around a basketball game
  418. 00:06:22.000 : en:Mock interviews
  419. 00:10:37.000 : en:More interviews
  420. 00:13:20.000 : en:Fay tells Everett a story of the future
  421. 00:18:52.000 : en:Coming in to work
  422. 00:20:05.000 : en:A night of strange calls and sounds
  423. 00:26:28.000 : en:Fay calls Everett
  424. 00:31:00.000 : en:A tour around town
  425. 00:34:26.000 : en:Someone calls in with a story
  426. 00:42:33.000 : en:Time to act
  427. 00:47:36.000 : en:Breaking into the library
  428. 00:50:20.000 : en:Listening to the tapes
  429. 00:53:53.000 : en:Power outage
  430. 00:56:20.000 : en:Suspicious things in the sky
  431. 00:58:33.000 : en:Mabel tells her story
  432. 01:12:35.000 : en:Checking on family and friends
  433. 01:15:29.000 : en:A frantic car ride
  434. 01:18:12.000 : en:Finding something in the woods
  435. 01:23:58.000 : en:Life returns to normal
  436. 01:25:40.000 : en:End Credits
复制代码

浩瀚的夜晚4k The.Vast.Of.Night.2019.HDR.2160p.WEB.h265电影下载
浩瀚的夜晚4k.The.Vast.Of.Night.2019.HDR.2160p.WEB.h265【9.95 GB】
[Hao4k]浩瀚的夜晚4k The.Vast.Of.Night.2019.HDR.2160p.WEB.h265-WATCHER.torrent
(50.42 KB)
回复

使用道具 举报

您需要登录后才可以回帖 登录 | 立即注册

本版积分规则

在线客服

在线客服

服务时间 9:00—18:00

返回顶部

关注微信公众号第一时间推送精彩

官方微信

手机访问

Hao4K影音

专注4k家庭影音,提供家庭影音社区,家庭影音器材库,影音问答平台,影音商城,服务千万家庭影音用户。

本站内容部分由用户自主分享和转载自互联网,转载目的在于传递更多信息,并不代表本网赞同其观点和对其真实性负责。

如有侵权、违反国家法律政策行为,请联系我们,我们会第一时间及时清除和处理!

举报反馈邮箱:admin@hao4k.cn

Copyright  2019-2020  Hao4K影音粤公网安备 44030302001429号    ( 粤ICP备18155646号-1 )|网站地图