专注4K家庭影音, 服务千万家庭影音发烧友!

一生4k Life.Itself.2018.HDR.2160p.WEB.h265电影下载

 关闭
老顽童 发表于 2020-6-9 09:54:46 | 显示全部楼层
电影频道
电影封面:
片  名: 一生4k
电影分类: 剧情 爱情片 
国  家: 美国 
年  代: 2018年
分 辨 率: 4K(3840x2160)
电影格式: MKV|REMUX 
画质标准: 其他 
音质编码: Dolby Digital Plus Audio 
电影声道: 其他 
帧数/FPS: FPS
电影语言: 英文原版 
资源大小: 12.08 GB
导  演: 丹·福格尔曼
豆瓣评分: 7.3 分
中文字幕: /thread-47869-1-1.html
剧情简介: 奥斯卡·伊萨克将出演新片《一生》(Life Itself,暂译),导演丹·福格尔曼负责编剧、执导,2017年春天开始制作。背景在纽约的西班牙郊区,奥斯卡·伊萨克饰演的角色将串联起几代人的爱情故事。
生命中的美好意外(港/台) / 生活本身 / 人生如戏/一生4k Life.Itself.2018.HDR.2160p.WEB.h265电影信息
  1. Video
  2. ID : 3
  3. Format : HEVC
  4. Format/Info : High Efficiency Video Coding
  5. Format profile : Main 10@L5@Main
  6. HDR format : SMPTE ST 2094 App 4, Version 0
  7. Codec ID : V_MPEGH/ISO/HEVC
  8. Duration : 1 h 57 min
  9. Bit rate : 13.9 Mb/s
  10. Width : 3 840 pixels
  11. Height : 1 600 pixels
  12. Display aspect ratio : 2.40:1
  13. Frame rate mode : Constant
  14. Frame rate : 23.976 (24000/1001) FPS
  15. Standard : NTSC
  16. Color space : YUV
  17. Chroma subsampling : 4:2:0 (Type 2)
  18. Bit depth : 10 bits
  19. Bits/(Pixel*Frame) : 0.095
  20. Stream size : 11.4 GiB (96%)
  21. Default : Yes
  22. Forced : No
  23. Color range : Limited
  24. Color primaries : BT.2020
  25. Transfer characteristics : PQ
  26. Matrix coefficients : BT.2020 non-constant
  27. Mastering display color primaries : Display P3
  28. Mastering display luminance : min: 0.0051 cd/m2, max: 1000 cd/m2
  29. Maximum Content Light Level : 815 cd/m2
  30. Maximum Frame-Average Light Level : 186 cd/m2

  31. Audio
  32. ID : 1
  33. Format : E-AC-3
  34. Format/Info : Enhanced AC-3
  35. Commercial name : Dolby Digital Plus
  36. Codec ID : A_EAC3
  37. Duration : 1 h 57 min
  38. Bit rate mode : Constant
  39. Bit rate : 640 kb/s
  40. Channel(s) : 6 channels
  41. Channel layout : L R C LFE Ls Rs
  42. Sampling rate : 48.0 kHz
  43. Frame rate : 31.250 FPS (1536 SPF)
  44. Compression mode : Lossy
  45. Stream size : 539 MiB (4%)
  46. Title : English
  47. Language : English
  48. Service kind : Complete Main
  49. Default : Yes
  50. Forced : No

  51. Text
  52. ID : 2
  53. Format : UTF-8
  54. Codec ID : S_TEXT/UTF8
  55. Codec ID/Info : UTF-8 Plain Text
  56. Duration : 1 h 56 min
  57. Bit rate : 56 b/s
  58. Count of elements : 1633
  59. Stream size : 48.4 KiB (0%)
  60. Title : English [SDH]
  61. Language : English
  62. Default : No
  63. Forced : No

  64. Menu
  65. 00:00:00.000 : en:Studio Logos
  66. 00:00:53.000 : en:We meet our hero
  67. 00:05:01.000 : en:Will isn't well
  68. 00:07:24.000 : en:Will loves Abby intensely
  69. 00:13:11.000 : en:Will works with his therapist
  70. 00:17:08.000 : en:Will remembers having fun with Abby
  71. 00:25:15.000 : en:Will tells Dr. Morris about Abby
  72. 00:33:51.000 : en:Maybe it was all a narrative trick
  73. 00:41:31.000 : en:The story of Dylan Dempsey
  74. 00:45:27.000 : en:Dylan is out of control
  75. 00:54:05.000 : en:Javier meets with Mr. Saccione
  76. 01:06:27.000 : en:Hero or villain?
  77. 01:11:46.000 : en:Javier takes his family to New York
  78. 01:16:29.000 : en:Mr. Saccione steps up to help
  79. 01:27:50.000 : en:Rodrigo finds his path
  80. 01:32:54.000 : en:An important day for Rodrigo
  81. 01:42:39.000 : en:When life brings you to your knees, stand back up
  82. 01:49:15.000 : en:End Credits
复制代码

生命中的美好意外(港/台) / 生活本身 / 人生如戏/一生4k Life.Itself.2018.HDR.2160p.WEB.h265电影下载
一生4k Life.Itself.2018.HDR.2160p.WEB.h265【12.08 GB】
一生4k Life.Itself.2018.HDR.2160p.WEB.h265-WATCHER.torrent
(61.08 KB)
回复

使用道具 举报

发烧友评论1

倒序浏览
您需要登录后才可以回帖 登录 | 立即注册

本版积分规则

在线客服

在线客服

服务时间 9:00—18:00

返回顶部

关注微信公众号第一时间推送精彩

官方微信

手机访问

Hao4K影音

专注4k家庭影音,提供家庭影音社区,家庭影音器材库,影音问答平台,影音商城,服务千万家庭影音用户。

本站内容部分由用户自主分享和转载自互联网,转载目的在于传递更多信息,并不代表本网赞同其观点和对其真实性负责。

如有侵权、违反国家法律政策行为,请联系我们,我们会第一时间及时清除和处理!

举报反馈邮箱:admin@hao4k.cn

Copyright  2019-2020  Hao4K影音粤公网安备 44030302001429号    ( 粤ICP备18155646号-1 )|网站地图