专注4K家庭影音, 服务千万家庭影音发烧友!

校巴人生4k All.Together.Now.2020.2160p.NF.WEBRip.x265.10bit.SDR.DDP5.1.Atmos-4k电影下载

青衫烟雨 发表于 2020-9-4 20:18:45 | 显示全部楼层
电影频道
电影封面:
片  名: 校巴人生4k
电影分类: 剧情 
国  家: 美国 
年  代: 2020年
分 辨 率: 4K(3840x2160)
电影格式: MKV|REMUX 
画质标准: SDR 
音质编码: Dolby Digital Plus Audio 
电影声道: 5.1声道 
帧数/FPS: 31.250 FPS
电影语言: 中文简体 英文原版 
资源大小: 9.49 GB
导  演: 布雷特·海利
豆瓣评分: 6.5 分
中文字幕: /thread-49470-1-1.html
剧情简介: 即使私底下过着艰难无依的生活,安珀·艾波顿(奥莉伊·卡拉瓦尔侯饰)在人前总是表现得乐观积极。还在念高中的她拥有优秀的音乐天赋,并梦想进入卡内基美隆大学。尽管要平衡工作、生活和一些无法告人的生活难题,她还是面带微笑地撑过去。然而,当可能危及梦想的挑战接踵而至,她必须学习依靠情同家人的朋友们,继续勇敢向前。
校巴的村民(港) / 校车里的乐观人生(台) / 像个摇滚明星 / Sorta Like a Rock Star/校巴人生4k All.Together.Now.2020.2160p.NF.WEBRip.x265.10bit.SDR.DDP5.1.Atmos-4k电影信息
  1. Video
  2. ID : 32
  3. Format : HEVC
  4. Format/Info : High Efficiency Video Coding
  5. Format profile : Main 10@L5.1@High
  6. Codec ID : V_MPEGH/ISO/HEVC
  7. Duration : 1 h 33 min
  8. Bit rate : 13.8 Mb/s
  9. Width : 3 840 pixels
  10. Height : 1 748 pixels
  11. Display aspect ratio : 2.2:1
  12. Frame rate mode : Constant
  13. Frame rate : 24.000 FPS
  14. Color space : YUV
  15. Chroma subsampling : 4:2:0
  16. Bit depth : 10 bits
  17. Bits/(Pixel*Frame) : 0.086
  18. Stream size : 8.99 GiB (95%)
  19. Writing library : x265 3.0_Au+4-dcbec33bfb0f:[Windows][GCC 8.2.1][64 bit] 10bit
  20. Encoding settings : cpuid=1111039 / frame-threads=4 / numa-pools=24 / wpp / pmode / no-pme / no-psnr / no-ssim / log-level=2 / input-csp=1 / input-res=3840x1748 / interlace=0 / total-frames=134423 / level-idc=51 / high-tier=1 / uhd-bd=0 / ref=4 / no-allow-non-conformance / repeat-headers / annexb / aud / no-hrd / info / hash=0 / no-temporal-layers / no-open-gop / min-keyint=23 / keyint=250 / gop-lookahead=0 / bframes=10 / b-adapt=2 / b-pyramid / bframe-bias=0 / rc-lookahead=40 / lookahead-slices=0 / scenecut=40 / radl=0 / no-splice / no-intra-refresh / ctu=64 / min-cu-size=8 / no-rect / no-amp / max-tu-size=32 / tu-inter-depth=3 / tu-intra-depth=3 / limit-tu=4 / rdoq-level=2 / dynamic-rd=0.00 / no-ssim-rd / signhide / no-tskip / nr-intra=0 / nr-inter=0 / no-constrained-intra / strong-intra-smoothing / max-merge=4 / limit-refs=1 / limit-modes / me=3 / subme=5 / merange=57 / temporal-mvp / weightp / weightb / no-analyze-src-pics / deblock=-3:-3 / no-sao / no-sao-non-deblock / rd=4 / no-early-skip / no-rskip / no-fast-intra / no-tskip-fast / no-cu-lossless / b-intra / no-splitrd-skip / rdpenalty=0 / psy-rd=2.00 / psy-rdoq=0.00 / no-rd-refine / no-lossless / cbqpoffs=0 / crqpoffs=0 / rc=crf / crf=22.0 / qcomp=0.60 / qpstep=4 / stats-write=0 / stats-read=0 / vbv-maxrate=160000 / vbv-bufsize=160000 / vbv-init=0.9 / crf-max=0.0 / crf-min=0.0 / ipratio=1.30 / pbratio=1.20 / aq-mode=3 / aq-strength=0.80 / no-cutree / zone-count=0 / no-strict-cbr / qg-size=32 / no-rc-grain / qpmax=69 / qpmin=0 / no-const-vbv / sar=1 / overscan=0 / videoformat=5 / range=0 / colorprim=1 / transfer=1 / colormatrix=1 / chromaloc=0 / display-window=0 / max-cll=0,0 / min-luma=0 / max-luma=1023 / log2-max-poc-lsb=8 / vui-timing-info / vui-hrd-info / slices=1 / no-opt-qp-pps / no-opt-ref-list-length-pps / no-multi-pass-opt-rps / scenecut-bias=0.05 / no-opt-cu-delta-qp / no-aq-motion / no-hdr / no-hdr-opt / no-dhdr10-opt / no-idr-recovery-sei / analysis-reuse-level=5 / scale-factor=0 / refine-intra=0 / refine-inter=0 / refine-mv=0 / refine-ctu-distortion=0 / no-limit-sao / ctu-info=0 / no-lowpass-dct / refine-analysis-type=0 / copy-pic=1 / max-ausize-factor=1.0 / no-dynamic-refine / no-single-sei / no-hevc-aq / qp-adaptation-range=1.00
  21. Default : Yes
  22. Forced : No
  23. Color range : Limited
  24. Color primaries : BT.709
  25. Transfer characteristics : BT.709
  26. Matrix coefficients : BT.709

  27. Audio
  28. ID : 1
  29. Format : E-AC-3 JOC
  30. Format/Info : Enhanced AC-3 with Joint Object Coding
  31. Commercial name : Dolby Digital Plus with Dolby Atmos
  32. Codec ID : A_EAC3
  33. Duration : 1 h 33 min
  34. Bit rate mode : Constant
  35. Bit rate : 768 kb/s
  36. Channel(s) : 6 channels
  37. Channel layout : L R C LFE Ls Rs
  38. Sampling rate : 48.0 kHz
  39. Frame rate : 31.250 FPS (1536 SPF)
  40. Compression mode : Lossy
  41. Stream size : 515 MiB (5%)
  42. Title : English
  43. Language : English
  44. Service kind : Complete Main
  45. Default : Yes
  46. Forced : No
  47. Complexity index : 16
  48. Number of dynamic objects : 15
  49. Bed channel count : 1 channel
  50. Bed channel configuration : LFE

  51. Text #1
  52. ID : 2
  53. Format : UTF-8
  54. Codec ID : S_TEXT/UTF8
  55. Codec ID/Info : UTF-8 Plain Text
  56. Duration : 1 h 30 min
  57. Bit rate : 54 b/s
  58. Count of elements : 1109
  59. Stream size : 36.1 KiB (0%)
  60. Language : English
  61. Default : No
  62. Forced : No

  63. Text #2
  64. ID : 3
  65. Format : UTF-8
  66. Codec ID : S_TEXT/UTF8
  67. Codec ID/Info : UTF-8 Plain Text
  68. Duration : 1 h 31 min
  69. Bit rate : 58 b/s
  70. Count of elements : 1222
  71. Stream size : 38.9 KiB (0%)
  72. Title : SDH
  73. Language : English
  74. Default : No
  75. Forced : No

  76. Text #3
  77. ID : 4
  78. Format : UTF-8
  79. Codec ID : S_TEXT/UTF8
  80. Codec ID/Info : UTF-8 Plain Text
  81. Duration : 1 h 26 min
  82. Bit rate : 79 b/s
  83. Count of elements : 943
  84. Stream size : 50.0 KiB (0%)
  85. Language : Arabic
  86. Default : No
  87. Forced : No

  88. Text #4
  89. ID : 5
  90. Format : UTF-8
  91. Codec ID : S_TEXT/UTF8
  92. Codec ID/Info : UTF-8 Plain Text
  93. Duration : 1 h 26 min
  94. Bit rate : 41 b/s
  95. Count of elements : 934
  96. Stream size : 26.0 KiB (0%)
  97. Language : Czech
  98. Default : No
  99. Forced : No

  100. Text #5
  101. ID : 6
  102. Format : UTF-8
  103. Codec ID : S_TEXT/UTF8
  104. Codec ID/Info : UTF-8 Plain Text
  105. Duration : 1 h 26 min
  106. Bit rate : 39 b/s
  107. Count of elements : 839
  108. Stream size : 24.9 KiB (0%)
  109. Language : Danish
  110. Default : No
  111. Forced : No
复制代码

校巴的村民(港) / 校车里的乐观人生(台) / 像个摇滚明星 / Sorta Like a Rock Star/校巴人生4k All.Together.Now.2020.2160p.NF.WEBRip.x265.10bit.SDR.DDP5.1.Atmos-4k电影下载
校巴人生4k All.Together.Now.2020.2160p.NF.WEBRip.x265.10bit.SDR.DDP5.1.Atmos【9.49 GB】
校巴人生4k All.Together.Now.2020.2160p.NF.WEBRip.x265.10bit.SDR.DDP5.1.Atmos-TOMMY.torrent
(47.99 KB)
回复

使用道具 举报

发烧友评论24

倒序浏览
panbell 发表于 3 天前 | 显示全部楼层
楼主发贴辛苦,感谢楼主分享
回复 支持 反对

使用道具 举报

youngheart 发表于 2020-9-9 09:09:49 | 显示全部楼层
小手一抖,K币拿走
回复 支持 反对

使用道具 举报

henryhch 发表于 2020-9-6 20:20:26 | 显示全部楼层
wills2020 发表于 2020-9-6 18:36
迅雷没法下载啊。。。求下载软件推荐

好4K主页上就有下载教程以及下载软件推荐

评分

参与人数 1K币 +20 收起 理由
hao4k + 20 赞一个!

查看全部评分

回复 支持 1 反对 0

使用道具 举报

wills2020 发表于 2020-9-6 18:36:53 | 显示全部楼层
迅雷没法下载啊。。。求下载软件推荐
回复 支持 反对

使用道具 举报

我心亦逝 发表于 2020-9-5 22:48:56 | 显示全部楼层
感谢分享,辛苦了
回复 支持 反对

使用道具 举报

zhougess 发表于 2020-9-5 20:00:24 | 显示全部楼层
内置中文字幕了,不错。  学习
回复 支持 反对

使用道具 举报

BOQIJIN 发表于 2020-9-5 09:01:32 Hao4K手机版 | 显示全部楼层
内置中文字幕了,不错。
回复 支持 反对

使用道具 举报

sm-king 发表于 2020-9-5 08:53:06 | 显示全部楼层
青春搞笑片啊?楼主辛苦
回复 支持 反对

使用道具 举报

您需要登录后才可以回帖 登录 | 立即注册

本版积分规则

在线客服

在线客服

服务时间 9:00—18:00

返回顶部

关注微信公众号第一时间推送精彩

官方微信

手机访问

Hao4K影音

专注4k家庭影音,提供家庭影音社区,家庭影音器材库,影音问答平台,影音商城,服务千万家庭影音用户。

本站内容部分由用户自主分享和转载自互联网,转载目的在于传递更多信息,并不代表本网赞同其观点和对其真实性负责。

如有侵权、违反国家法律政策行为,请联系我们,我们会第一时间及时清除和处理!

举报反馈邮箱:admin@hao4k.cn

Copyright  2019-2020  Hao4K影音粤公网安备 44030302001429号    ( 粤ICP备18155646号-1 )|网站地图