微博 微信

Hao4K影音

电影频道
电影封面:
片  名: 辣身舞4K
电影分类: 剧情 爱情片 
国  家: 美国 
年  代: 80年代
分 辨 率: 4K(3840x2160)
电影格式: MKV|REMUX 
画质标准: HDR 
音质编码: Dolby Digital Audio DTS Audio 其他AAC 
电影声道: 5.1声道 
帧数/FPS: 23.976 FPS
电影语言: 英文原版 
资源大小: 11.03 GB
导  演: 埃米利·阿朵里诺
豆瓣评分: 7.8 分
中文字幕: /thread-52166-1-1.html
剧情简介: 弗朗西丝(詹妮弗•格雷 饰)与家人到了凯勒曼山区度假。17岁的弗朗西丝对男孩子、舞蹈和家庭游戏都不感兴趣。
  一次偶然,她来到了一家旅馆,里面的男男女女非常缠绵地在一起跳舞。弗朗西丝马上觉得这样的舞蹈不堪入目。舞蹈教练约翰尼(帕特里克•斯威兹 饰)来到了她跟前,他为弗朗西丝解开顾虑,并教她舞蹈的基本步。学习过程中,弗朗西丝也发现自己爱上了约翰尼。因为害怕被解雇,约翰尼不敢与弗朗西丝发展下去。
  这时约翰尼的舞伴怀上了大学生罗比的孩子,弗朗西丝让自己的医生父亲帮忙检查,但弗朗西丝的父亲误以为孩子是约翰尼的,继而阻止女儿与约翰尼交往,他们俩只好暗中见面。因为被诬陷,约翰尼失业了
热舞十七 / 脏舞 / 热舞/辣身舞4K.Dirty.Dancing.1987.2160p.WEBRip.x265.10bit.HDR.DTS.Express.5.1-4k电影信息
  1. Video
  2. ID : 1
  3. Format : HEVC
  4. Format/Info : High Efficiency Video Coding
  5. Format profile : Main 10@L5@Main
  6. HDR format : SMPTE ST 2086, HDR10 compatible
  7. Codec ID : V_MPEGH/ISO/HEVC
  8. Duration : 1 h 40 min
  9. Bit rate : 14.9 Mb/s
  10. Width : 3 840 pixels
  11. Height : 2 160 pixels
  12. Display aspect ratio : 16:9
  13. Frame rate mode : Constant
  14. Frame rate : 23.976 (24000/1001) FPS
  15. Original frame rate : 23.976 (23976/1000) FPS
  16. Color space : YUV
  17. Chroma subsampling : 4:2:0 (Type 2)
  18. Bit depth : 10 bits
  19. Bits/(Pixel*Frame) : 0.075
  20. Stream size : 10.5 GiB (95%)
  21. Writing library : x265 3.0:[Linux][GCC 4.8.5][64 bit] 10bit
  22. Encoding settings : cpuid=1111039 / frame-threads=6 / wpp / no-pmode / no-pme / no-psnr / no-ssim / log-level=2 / input-csp=1 / input-res=3840x2160 / interlace=0 / total-frames=0 / level-idc=50 / high-tier=1 / uhd-bd=0 / ref=3 / no-allow-non-conformance / repeat-headers / annexb / no-aud / no-hrd / info / hash=0 / no-temporal-layers / no-open-gop / min-keyint=48 / keyint=48 / gop-lookahead=0 / bframes=4 / b-adapt=2 / b-pyramid / bframe-bias=0 / rc-lookahead=48 / lookahead-slices=4 / scenecut=40 / radl=0 / no-splice / no-intra-refresh / ctu=64 / min-cu-size=8 / rect / no-amp / max-tu-size=32 / tu-inter-depth=1 / tu-intra-depth=1 / limit-tu=0 / rdoq-level=2 / dynamic-rd=0.00 / no-ssim-rd / signhide / no-tskip / nr-intra=0 / nr-inter=0 / no-constrained-intra / strong-intra-smoothing / max-merge=3 / limit-refs=3 / limit-modes / me=2 / subme=3 / merange=57 / temporal-mvp / weightp / no-weightb / no-analyze-src-pics / deblock=0:0 / no-sao / no-sao-non-deblock / rd=4 / no-early-skip / no-rskip / no-fast-intra / no-tskip-fast / no-cu-lossless / no-b-intra / no-splitrd-skip / rdpenalty=0 / psy-rd=4.00 / psy-rdoq=10.00 / no-rd-refine / no-lossless / cbqpoffs=0 / crqpoffs=0 / rc=abr / bitrate=15000 / qcomp=0.60 / qpstep=1 / stats-write=0 / stats-read=0 / vbv-maxrate=22500 / vbv-bufsize=22500 / vbv-init=0.9 / ipratio=1.10 / pbratio=1.00 / aq-mode=0 / aq-strength=0.00 / no-cutree / zone-count=0 / no-strict-cbr / qg-size=32 / rc-grain / qpmax=69 / qpmin=0 / const-vbv / sar=1 / overscan=0 / videoformat=5 / range=0 / colorprim=9 / transfer=16 / colormatrix=9 / chromaloc=1 / chromaloc-top=2 / chromaloc-bottom=2 / display-window=0 / master-display=G(13250,34500)B(7500,3000)R(34000,16000)WP(15635,16450)L(10000000,50) / max-cll=648,143 / min-luma=0 / max-luma=1023 / log2-max-poc-lsb=8 / vui-timing-info / vui-hrd-info / slices=1 / no-opt-qp-pps / no-opt-ref-list-length-pps / no-multi-pass-opt-rps / scenecut-bias=0.05 / no-opt-cu-delta-qp / no-aq-motion / hdr / no-hdr-opt / no-dhdr10-opt / no-idr-recovery-sei / analysis-reuse-level=5 / scale-factor=0 / refine-intra=0 / refine-inter=0 / refine-mv=0 / refine-ctu-distortion=0 / no-limit-sao / ctu-info=0 / no-lowpass-dct / refine-analysis-type=0 / copy-pic=1 / max-ausize-factor=1.0 / no-dynamic-refine / no-single-sei / no-hevc-aq / qp-adaptation-range=1.00
  23. Language : English
  24. Default : Yes
  25. Forced : No
  26. Color range : Limited
  27. Color primaries : BT.2020
  28. Transfer characteristics : PQ
  29. Matrix coefficients : BT.2020 non-constant
  30. Mastering display color primaries : Display P3
  31. Mastering display luminance : min: 0.0050 cd/m2, max: 1000 cd/m2
  32. Maximum Content Light Level : 648 cd/m2
  33. Maximum Frame-Average Light Level : 143 cd/m2

  34. Audio #1
  35. ID : 2
  36. Format : DTS LBR
  37. Format/Info : Digital Theater Systems
  38. Commercial name : DTS Express
  39. Codec ID : A_DTS
  40. Duration : 1 h 40 min
  41. Bit rate mode : Constant
  42. Bit rate : 384 kb/s
  43. Channel(s) : 6 channels
  44. Channel layout : C L R Ls Rs LFE
  45. Sampling rate : 48.0 kHz
  46. Frame rate : 11.719 FPS (4096 SPF)
  47. Bit depth : 24 bits
  48. Compression mode : Lossy
  49. Stream size : 276 MiB (2%)
  50. Title : English
  51. Language : English
  52. Default : Yes
  53. Forced : No

  54. Audio #2
  55. ID : 3
  56. Format : AC-3
  57. Format/Info : Audio Coding 3
  58. Commercial name : Dolby Digital
  59. Codec ID : A_AC3
  60. Duration : 1 h 40 min
  61. Bit rate mode : Constant
  62. Bit rate : 384 kb/s
  63. Channel(s) : 6 channels
  64. Channel layout : L R C LFE Ls Rs
  65. Sampling rate : 48.0 kHz
  66. Frame rate : 31.250 FPS (1536 SPF)
  67. Compression mode : Lossy
  68. Stream size : 276 MiB (2%)
  69. Language : English
  70. Service kind : Complete Main
  71. Default : No
  72. Forced : No

  73. Text
  74. ID : 4
  75. Format : UTF-8
  76. Codec ID : S_TEXT/UTF8
  77. Codec ID/Info : UTF-8 Plain Text
  78. Duration : 1 h 39 min
  79. Bit rate : 60 b/s
  80. Count of elements : 1692
  81. Stream size : 44.2 KiB (0%)
  82. Title : English (SDH)
  83. Language : English
  84. Default : No
  85. Forced : No
复制代码

热舞十七 / 脏舞 / 热舞/辣身舞4K.Dirty.Dancing.1987.2160p.WEBRip.x265.10bit.HDR.DTS.Express.5.1-4K电影下载
辣身舞4K.Dirty.Dancing.1987.2160p.WEBRip.x265.10bit.HDR.DTS.Express.5.1【4K HDR  11.03 GB】
[Hao4K]辣身舞4K.Dirty.Dancing.1987.2160p.WEBRip.x265.10bit.HDR.DTS.Express.5.1-N.torrent (55.71 KB)
回复

使用道具 举报

全部回复16

opkqq00 发表于 2020-12-12 18:26:45

opkqq00 沙发

2020-12-12 18:26:45

感谢楼主无私奉献
回复 支持 反对

使用道具 举报

leeleeming8990 发表于 2020-12-12 20:19:09

leeleeming8990 板凳

2020-12-12 20:19:09

先看看再说。
回复 支持 反对

使用道具 举报

dyczw 发表于 2020-12-13 06:48:18

dyczw 5#

2020-12-13 06:48:18

感谢分享,辛苦了
回复 支持 反对

使用道具 举报

ywf6168 发表于 2020-12-13 14:28:31

ywf6168 6#

2020-12-13 14:28:31

谢谢分享好影片
回复 支持 反对

使用道具 举报

lonelyman015043 发表于 2020-12-14 01:57:13

lonelyman015043 7#

2020-12-14 01:57:13

这个必须顶起来
回复 支持 反对

使用道具 举报

其中之一 发表于 2020-12-14 11:40:46

其中之一 8#

2020-12-14 11:40:46

加油 谢谢分享
回复 支持 反对

使用道具 举报

panbell 发表于 2020-12-14 20:18:22

panbell 9#

2020-12-14 20:18:22

好资源!谢谢分享!
回复 支持 反对

使用道具 举报

weiwen9898 发表于 2020-12-14 21:15:04

weiwen9898 10#

2020-12-14 21:15:04

感谢分享经典剧情片
回复 支持 反对

使用道具 举报

ghibli 发表于 2020-12-20 14:28:04

ghibli 13#

2020-12-20 14:28:04


感谢分享经典剧情片
回复 支持 反对

使用道具 举报

panbell 发表于 2020-12-20 14:42:54

panbell 14#

2020-12-20 14:42:54

经典!谢谢分享!
回复 支持 反对

使用道具 举报

maczou@163.com 发表于 2020-12-29 19:54:48

maczou@163.com 15#

2020-12-29 19:54:48

怎么好多主题不能回复了,台风来了吗
回复 支持 反对

使用道具 举报

xgfp 发表于 2020-12-30 09:44:37

xgfp 16#

2020-12-30 09:44:37

已经下载好的朋友,如果是在该网站上下载的中文字幕,需要调整字幕时间超前0.5秒才能同步,该老片子看看也不错。
回复 支持 反对

使用道具 举报

小竹 发表于 2021-1-5 14:17:19

小竹 17#

2021-1-5 14:17:19

谢谢楼主,辛苦了
回复 支持 反对

使用道具 举报

发表回复

您需要登录后才可以回帖 登录 | 立即注册

返回列表 本版积分规则

  • 在线客服

  • 返回顶部