微博 微信

Hao4K影音

电影频道
电影封面:
片  名: 冰岛实验音乐4K
电影分类: 纪录片 
国  家: 美国 
年  代: 2018年
分 辨 率: 4K(3840x2160)
电影格式: MKV|REMUX 
画质标准: SDR 
音质编码: 其他AAC 
电影声道: 2.0声道 
帧数/FPS: 23.976 FPS
电影语言: 英文原版 
资源大小: 10.77 GB
导  演: Derrick Belcham
豆瓣评分:
中文字幕: -
剧情简介: At Noon Fell A Darkness is a poetic profile of 15 prominent Icelandic musicians and poets as they travel home to Reykjavik for Sigur Ros\'s inaugural Noreur og Nieur festival in the winter of 2017-18. The film follows acclaimed and award-winning artists such as Gyea Valtysdóttir, Sóley Stefánsdóttir, Bára Gísladóttir, Sigrún Jónsdóttir, Kristín Anna Valtysdóttir, Kórus, Mammút, úlfur Hansson, Alex Somers, Gereur Kristny, Fríea ísberg and Arngunnur árnadóttir to lighthouses, abandoned pools, the feet of mountains and to volcanic beaches to create an experimental documentary of a contemporary moment in the history of Icelandic art.
冰岛实验音乐4K.At.Noon.Fell.A.Darkness.2018.2160p.WEBRip.x264.8bit.SDR.AAC2.0-4K纪录片信息
  1. Video
  2. ID : 1
  3. Format : AVC
  4. Format/Info : Advanced Video Codec
  5. Format profile : High@L5.2
  6. Format settings : CABAC / 5 Ref Frames
  7. Format settings, CABAC : Yes
  8. Format settings, Reference frames : 5 frames
  9. Codec ID : V_MPEG4/ISO/AVC
  10. Duration : 1 h 4 min
  11. Bit rate : 23.6 Mb/s
  12. Width : 3 840 pixels
  13. Height : 2 160 pixels
  14. Display aspect ratio : 16:9
  15. Frame rate mode : Constant
  16. Frame rate : 23.976 (24000/1001) FPS
  17. Color space : YUV
  18. Chroma subsampling : 4:2:0
  19. Bit depth : 8 bits
  20. Scan type : Progressive
  21. Bits/(Pixel*Frame) : 0.119
  22. Stream size : 10.7 GiB (99%)
  23. Writing library : x264 core 159 r10 1771b55
  24. Encoding settings : cabac=1 / ref=5 / deblock=1:0:0 / analyse=0x3:0x113 / me=hex / subme=8 / psy=1 / psy_rd=1.00:0.00 / mixed_ref=1 / me_range=16 / chroma_me=1 / trellis=2 / 8x8dct=1 / cqm=0 / deadzone=21,11 / fast_pskip=1 / chroma_qp_offset=-2 / threads=48 / lookahead_threads=8 / sliced_threads=0 / nr=0 / decimate=1 / interlaced=0 / bluray_compat=0 / stitchable=1 / constrained_intra=0 / bframes=3 / b_pyramid=2 / b_adapt=2 / b_bias=0 / direct=3 / weightb=1 / open_gop=0 / weightp=2 / keyint=infinite / keyint_min=23 / scenecut=40 / intra_refresh=0 / rc_lookahead=50 / rc=crf / mbtree=1 / crf=20.0 / qcomp=0.60 / qpmin=5 / qpmax=69 / qpstep=4 / vbv_maxrate=24200 / vbv_bufsize=66000 / crf_max=0.0 / nal_hrd=none / filler=0 / ip_ratio=1.40 / aq=1:1.00
  25. Default : Yes
  26. Forced : No
  27. Color range : Limited
  28. Color primaries : BT.709
  29. Transfer characteristics : BT.709
  30. Matrix coefficients : BT.709

  31. Audio
  32. ID : 2
  33. Format : AAC LC
  34. Format/Info : Advanced Audio Codec Low Complexity
  35. Codec ID : A_AAC-2
  36. Duration : 1 h 4 min
  37. Bit rate : 253 kb/s
  38. Channel(s) : 2 channels
  39. Channel layout : L R
  40. Sampling rate : 48.0 kHz
  41. Frame rate : 46.875 FPS (1024 SPF)
  42. Compression mode : Lossy
  43. Stream size : 117 MiB (1%)
  44. Language : English
  45. Default : Yes
  46. Forced : No
复制代码

冰岛实验音乐4K.At.Noon.Fell.A.Darkness.2018.2160p.WEBRip.x264.8bit.SDR.AAC2.0-4K音乐纪录片下载
冰岛实验音乐4K.At.Noon.Fell.A.Darkness.2018.2160p.WEBRip.x264.8bit.SDR.AAC2.0【4K SDR 10.77 GB】
冰岛实验音乐4K.At.Noon.Fell.A.Darkness.2018.2160p.WEBRip.x264.8bit.SDR.AAC2.0-Ci.torrent (54.42 KB)
回复

使用道具 举报

全部回复11

yale 发表于 2021-1-31 22:38:35

yale 沙发

2021-1-31 22:38:35

谢谢分享
回复 支持 反对

使用道具 举报

ww6 发表于 2021-2-1 10:39:31

ww6 板凳

2021-2-1 10:39:31

谢谢分享
回复 支持 反对

使用道具 举报

329748554 发表于 2021-2-1 14:49:01

329748554 地板

2021-2-1 14:49:01

非常感谢分享
回复 支持 反对

使用道具 举报

liubaijun 发表于 2021-2-2 11:36:59

liubaijun 5#

2021-2-2 11:36:59

太感谢楼主的分享
回复 支持 反对

使用道具 举报

wangtr 发表于 2021-2-2 12:12:29

wangtr 6#

2021-2-2 12:12:29

感觉有点帅,现在不能出国玩,只能看看这些过瘾了
回复 支持 反对

使用道具 举报

lch1164840694 发表于 2021-2-3 09:20:52

lch1164840694 7#

2021-2-3 09:20:52

感谢楼主
回复 支持 反对

使用道具 举报

世爵39 发表于 2021-2-5 19:02:34

世爵39 8#

2021-2-5 19:02:34

现在不能出国玩,只能看看这些过瘾了
回复 支持 反对

使用道具 举报

世爵39 发表于 2021-2-5 19:16:29

世爵39 9#

2021-2-5 19:16:29

太感谢楼主
回复 支持 反对

使用道具 举报

fengqingyang825 发表于 2021-2-7 18:00:15

fengqingyang825 10#

2021-2-7 18:00:15


感谢分享哈哈哈哈哈哈哈
回复 支持 反对

使用道具 举报

andywjhh 发表于 2021-2-16 22:57:17

andywjhh 11#

2021-2-16 22:57:17

辛苦了  感谢分享啊
回复 支持 反对

使用道具 举报

dyzfg 发表于 5 天前

dyzfg 12#

5 天前

谢谢分享
回复 支持 反对

使用道具 举报

   发表回复

您需要登录后才可以回帖 登录 | 立即注册

返回列表 本版积分规则

  • 在线客服

  • 返回顶部