微博 微信

Hao4K影音

电影频道
电影封面:
片  名: 家有儿女之最佳拍档4k
电影分类: 喜剧 其他 
国  家: 美国 中国大陆 英国 
年  代: 2020年
分 辨 率: 4K(3840x2160)
电影格式: MKV|REMUX 
画质标准: HDR10 
音质编码: Dolby Digital Plus Audio 
电影声道: 5.1声道 
帧数/FPS: 23.976 FPS
电影语言: 英文原版 
资源大小: 12.17 GB
导  演: 吉尔·约格尔
豆瓣评分: 5.1 分
中文字幕: -
剧情简介: 该片由吉尔·约格尔(《我恨你的十件事》)自编自导,讲述12岁的科技天才Oliver某次做实验出了差错,他和他的狗Henry之间产生了心灵感应,双方变得更亲近,联手克服家庭和学校的困难。Andrew Lazar(《美国狙击手》《猫狗大战》)制片。
像狗一样思考 / 狗最好的朋友 / Dogs Best Friend/家有儿女之最佳拍档4k Think.Like.a.Dog.2020.2160p.AMZN.WEB-DL.x265.10bit.HDR10plus.DTS-HD.MA.5.1.电影信息
  1. Video
  2. ID : 1
  3. Format : HEVC
  4. Format/Info : High Efficiency Video Coding
  5. Format profile : Main 10@L5@Main
  6. HDR format : SMPTE ST 2094 App 4, Version 1, HDR10+ Profile B compatible
  7. Codec ID : V_MPEGH/ISO/HEVC
  8. Duration : 1 h 30 min
  9. Bit rate : 14.8 Mb/s
  10. Width : 3 840 pixels
  11. Height : 2 080 pixels
  12. Display aspect ratio : 1.85:1
  13. Frame rate mode : Constant
  14. Frame rate : 23.976 (24000/1001) FPS
  15. Color space : YUV
  16. Chroma subsampling : 4:2:0
  17. Bit depth : 10 bits
  18. Bits/(Pixel*Frame) : 0.077
  19. Stream size : 9.41 GiB (77%)
  20. Default : Yes
  21. Forced : No
  22. Color range : Limited
  23. Color primaries : BT.2020
  24. Transfer characteristics : PQ
  25. Matrix coefficients : BT.2020 non-constant
  26. Mastering display color primaries : Display P3
  27. Mastering display luminance : min: 0.0010 cd/m2, max: 1000 cd/m2
  28. Maximum Content Light Level : 998 cd/m2
  29. Maximum Frame-Average Light Level : 534 cd/m2

  30. Audio #1
  31. ID : 2
  32. Format : DTS XLL
  33. Format/Info : Digital Theater Systems
  34. Commercial name : DTS-HD Master Audio
  35. Codec ID : A_DTS
  36. Duration : 1 h 30 min
  37. Bit rate mode : Variable
  38. Bit rate : 3 642 kb/s
  39. Channel(s) : 6 channels
  40. Channel layout : C L R Ls Rs LFE
  41. Sampling rate : 48.0 kHz
  42. Frame rate : 93.750 FPS (512 SPF)
  43. Bit depth : 24 bits
  44. Compression mode : Lossless
  45. Stream size : 2.31 GiB (19%)
  46. Title : DTS-HD MA 5.1
  47. Language : English
  48. Default : Yes
  49. Forced : No

  50. Audio #2
  51. ID : 3
  52. Format : E-AC-3
  53. Format/Info : Enhanced AC-3
  54. Commercial name : Dolby Digital Plus
  55. Codec ID : A_EAC3
  56. Duration : 1 h 30 min
  57. Bit rate mode : Constant
  58. Bit rate : 640 kb/s
  59. Channel(s) : 6 channels
  60. Channel layout : L R C LFE Ls Rs
  61. Sampling rate : 48.0 kHz
  62. Frame rate : 31.250 FPS (1536 SPF)
  63. Compression mode : Lossy
  64. Stream size : 416 MiB (3%)
  65. Title : DDP 5.1
  66. Language : English
  67. Service kind : Complete Main
  68. Default : No
  69. Forced : No

  70. Text #1
  71. ID : 4
  72. Format : UTF-8
  73. Codec ID : S_TEXT/UTF8
  74. Codec ID/Info : UTF-8 Plain Text
  75. Duration : 1 h 26 min
  76. Bit rate : 89 b/s
  77. Count of elements : 1772
  78. Stream size : 56.4 KiB (0%)
  79. Title : English-SRT
  80. Language : English
  81. Default : Yes
  82. Forced : No

  83. Text #2
  84. ID : 5
  85. Format : PGS
  86. Muxing mode : zlib
  87. Codec ID : S_HDMV/PGS
  88. Codec ID/Info : Picture based subtitle format used on BDs/HD-DVDs
  89. Duration : 1 h 25 min
  90. Bit rate : 53.1 kb/s
  91. Count of elements : 3194
  92. Stream size : 32.6 MiB (0%)
  93. Title : English-PGS
  94. Language : English
  95. Default : No
  96. Forced : No

  97. Text #3
  98. ID : 6
  99. Format : PGS
  100. Muxing mode : zlib
  101. Codec ID : S_HDMV/PGS
  102. Codec ID/Info : Picture based subtitle format used on BDs/HD-DVDs
  103. Duration : 1 h 25 min
  104. Bit rate : 48.2 kb/s
  105. Count of elements : 2844
  106. Stream size : 29.6 MiB (0%)
  107. Title : Spanish-PGS
  108. Language : Spanish
  109. Default : No
  110. Forced : No

  111. Menu
  112. 00:00:00.000 : en:Studio Logo
  113. 00:01:18.000 : en:Scene 2
  114. 00:06:30.000 : en:Scene 3
  115. 00:07:49.000 : en:Scene 4
  116. 00:11:38.000 : en:Scene 5
  117. 00:15:13.000 : en:Scene 6
  118. 00:19:45.000 : en:Scene 7
  119. 00:23:15.000 : en:Scene 8
  120. 00:25:20.000 : en:Scene 9
  121. 00:29:45.000 : en:Scene 10
  122. 00:30:47.000 : en:Scene 11
  123. 00:35:03.000 : en:Scene 12
  124. 00:39:15.000 : en:Scene 13
  125. 00:45:25.000 : en:Scene 14
  126. 00:49:15.000 : en:Scene 15
  127. 00:55:08.000 : en:Scene 16
  128. 00:57:41.000 : en:Scene 17
  129. 01:03:07.000 : en:Scene 18
  130. 01:06:03.000 : en:Scene 19
  131. 01:13:11.000 : en:Scene 20
  132. 01:13:45.000 : en:Scene 21
  133. 01:20:29.000 : en:Scene 22
  134. 01:25:32.000 : en:End Credits
复制代码

像狗一样思考 / 狗最好的朋友 / Dogs Best Friend/家有儿女之最佳拍档4k Think.Like.a.Dog.2020.2160p.AMZN.WEB-DL.x265.10bit.HDR10plus.DTS-HD.MA.5.1.电影下载

家有儿女之最佳拍档4k Think.Like.a.Dog.2020.2160p.AMZN.WEB-DL.x265.10bit.HDR10plus.DTS-HD.MA.5.1【12.17 GB】
[Hao4k]家有儿女之最佳拍档4k Think.Like.a.Dog.2020.2160p.AMZN.WEB-DL.x265.10bit.H.torrent (61.42 KB)
回复

使用道具 举报

全部回复12

yangly 发表于 2021-2-22 11:12:19

yangly 沙发

2021-2-22 11:12:19

谢谢分享新片
回复 支持 反对

使用道具 举报

andywjhh 发表于 2021-2-22 15:50:33

andywjhh 板凳

2021-2-22 15:50:33

感谢分享,楼主辛苦你了哦
回复 支持 反对

使用道具 举报

wangfs235 发表于 2021-2-22 21:03:28

wangfs235 地板

2021-2-22 21:03:28

感谢分享 感谢无私奉献
回复 支持 反对

使用道具 举报

dyczw 发表于 2021-2-23 06:32:55

dyczw 5#

2021-2-23 06:32:55

感谢分享,辛苦了
回复 支持 反对

使用道具 举报

ggang 发表于 2021-2-23 13:49:24

ggang 6#

2021-2-23 13:49:24

谢楼主分享
回复 支持 反对

使用道具 举报

blackhead 发表于 2021-2-23 14:26:56

blackhead 7#

2021-2-23 14:26:56

謝謝樓主分享
回复 支持 反对

使用道具 举报

yale 发表于 2021-2-23 15:54:55

yale 8#

2021-2-23 15:54:55

谢谢分享
回复 支持 反对

使用道具 举报

lianxi68 发表于 2021-2-24 09:35:16

lianxi68 9#

2021-2-24 09:35:16

谢谢分享。
回复 支持 反对

使用道具 举报

brockf5 发表于 5 天前

brockf5 10#

5 天前

经典的电影 感谢分享 终于可以看到了
回复 支持 反对

使用道具 举报

panbell 发表于 4 天前

panbell 11#

4 天前

感谢分享,支持了
回复 支持 反对

使用道具 举报

lpf199468L 发表于 4 天前

lpf199468L 12#

4 天前

多谢分享了!!
回复 支持 反对

使用道具 举报

brockf5 发表于 4 天前

brockf5 13#

4 天前

超级棒棒哒~~~~~~
回复 支持 反对

使用道具 举报

   发表回复

您需要登录后才可以回帖 登录 | 立即注册

返回列表 本版积分规则

  • 在线客服

  • 返回顶部