微博 微信

Hao4K影音

电影频道
电影封面:
片  名: 特种空勤团:红色通缉令4k
电影分类: 动作 犯罪 
国  家: 英国 其他 
年  代: 2021年
分 辨 率: 4K(3840x2160)
电影格式: MKV|REMUX 
画质标准: SDR 
音质编码: Dolby Digital Plus Audio 
电影声道: 5.1声道 
帧数/FPS: 23.976 帧
电影语言: 英文原版 
资源大小: 13.52 GB
导  演: 马格努斯·马滕斯
豆瓣评分: 5.6 分
中文字幕: /thread-55753-1-1.html
剧情简介:  一支由拉兹洛·安东诺夫领导的训练有素的罪犯组成的小部队在英吉利海峡深处劫持了“欧洲之星”
SAS:红色通知/特种空勤团:红色通缉令4k SAS.Red.Notice.2021.2160p.WEB-DL.x265.10bit.SDR.DDP5.1电影信息
  1. Video
  2. ID : 1
  3. Format : HEVC
  4. Format/Info : High Efficiency Video Coding
  5. Format profile : Main@L5.1@Main
  6. Codec ID : V_MPEGH/ISO/HEVC
  7. Duration : 2 h 3 min
  8. Bit rate : 15.0 Mb/s
  9. Width : 3 840 pixels
  10. Height : 2 160 pixels
  11. Display aspect ratio : 16:9
  12. Frame rate mode : Constant
  13. Frame rate : 23.976 (24000/1001) FPS
  14. Color space : YUV
  15. Chroma subsampling : 4:2:0
  16. Bit depth : 8 bits
  17. Bits/(Pixel*Frame) : 0.075
  18. Stream size : 13.0 GiB (96%)
  19. Default : Yes
  20. Forced : No
  21. Color range : Limited
  22. Color primaries : BT.709
  23. Transfer characteristics : BT.709
  24. Matrix coefficients : BT.709

  25. Audio
  26. ID : 2
  27. Format : E-AC-3
  28. Format/Info : Enhanced AC-3
  29. Commercial name : Dolby Digital Plus
  30. Codec ID : A_EAC3
  31. Duration : 2 h 3 min
  32. Bit rate mode : Constant
  33. Bit rate : 640 kb/s
  34. Channel(s) : 6 channels
  35. Channel layout : L R C LFE Ls Rs
  36. Sampling rate : 48.0 kHz
  37. Frame rate : 31.250 FPS (1536 SPF)
  38. Compression mode : Lossy
  39. Stream size : 567 MiB (4%)
  40. Language : English
  41. Service kind : Complete Main
  42. Default : Yes
  43. Forced : No

  44. Text #1
  45. ID : 3
  46. Format : UTF-8
  47. Codec ID : S_TEXT/UTF8
  48. Codec ID/Info : UTF-8 Plain Text
  49. Duration : 1 h 57 min
  50. Bit rate : 50 b/s
  51. Count of elements : 1406
  52. Stream size : 43.9 KiB (0%)
  53. Language : English
  54. Default : No
  55. Forced : No

  56. Text #2
  57. ID : 4
  58. Format : UTF-8
  59. Codec ID : S_TEXT/UTF8
  60. Codec ID/Info : UTF-8 Plain Text
  61. Duration : 1 h 57 min
  62. Bit rate : 53 b/s
  63. Count of elements : 1495
  64. Stream size : 46.6 KiB (0%)
  65. Title : SDH
  66. Language : English
  67. Default : No
  68. Forced : No
复制代码

SAS:红色通知/特种空勤团:红色通缉令4k SAS.Red.Notice.2021.2160p.WEB-DL.x265.10bit.SDR.DDP5.1电影下载

特种空勤团:红色通缉令4k SAS.Red.Notice.2021.2160p.WEB-DL.x265.10bit.SDR.DDP5.1【13.52 GB】
[Hao4k]特种空勤团:红色通缉令 4k SAS.Red.Notice.2021.2160p.WEB-DL.x265.10bit.SDR.torrent (68.16 KB, 售价: 2 K币)
回复

使用道具 举报

全部回复317

tlbtx 发表于 2021-3-18 08:26:40

tlbtx 沙发

2021-3-18 08:26:40

回复下载看电影。谢谢楼主。
回复 支持 反对

使用道具 举报

youkey0 发表于 2021-3-18 08:28:04

youkey0 板凳

2021-3-18 08:28:04

感谢楼主分享
回复 支持 反对

使用道具 举报

逗乐老爹 发表于 2021-3-18 08:41:33

逗乐老爹 地板

2021-3-18 08:41:33

谢谢楼主
回复 支持 反对

使用道具 举报

kuhu 发表于 2021-3-18 08:42:10

kuhu 5#

2021-3-18 08:42:10

片荒,下载看看,谢谢LZ!!
回复 支持 反对

使用道具 举报

农夫舅舅 发表于 2021-3-18 08:59:19 Hao4K手机版

农夫舅舅 6#

2021-3-18 08:59:19

不知道怎么样
回复 支持 反对

使用道具 举报

笑傲江湖K 发表于 2021-3-18 09:03:21

笑傲江湖K 7#

2021-3-18 09:03:21

谢谢分享
回复 支持 反对

使用道具 举报

zjzsa 发表于 2021-3-18 09:12:24

zjzsa 8#

2021-3-18 09:12:24

看过预告片,感觉很精彩!谢谢楼主分享好资源!!!
回复 支持 1 反对 0

使用道具 举报

CC142536 发表于 2021-3-18 09:16:34

CC142536 9#

2021-3-18 09:16:34

谢谢楼主
回复 支持 反对

使用道具 举报

潇湘老骚客 发表于 2021-3-18 09:19:09

潇湘老骚客 10#

2021-3-18 09:19:09

谢谢分享,永远支持
回复 支持 反对

使用道具 举报

runhandbob 发表于 2021-3-18 09:21:26

runhandbob 11#

2021-3-18 09:21:26

好电影,感谢楼分享!
回复 支持 反对

使用道具 举报

zhxiq 发表于 2021-3-18 09:23:11

zhxiq 12#

2021-3-18 09:23:11

支持,谢谢分享!!!
回复 支持 反对

使用道具 举报

dragon_walk 发表于 2021-3-18 09:26:04

dragon_walk 13#

2021-3-18 09:26:04

有片就下,片荒时期
回复 支持 反对

使用道具 举报

添爸 发表于 2021-3-18 09:28:56

添爸 14#

2021-3-18 09:28:56

感谢楼主分享
回复 支持 反对

使用道具 举报

lhfxxu 发表于 2021-3-18 09:36:18

lhfxxu 15#

2021-3-18 09:36:18

谢谢分享!!!!
回复 支持 反对

使用道具 举报

xdmxy8452 发表于 2021-3-18 09:36:57

xdmxy8452 16#

2021-3-18 09:36:57

最近片荒,感谢分享
回复 支持 1 反对 0

使用道具 举报

504741668 发表于 2021-3-18 09:41:48

504741668 17#

2021-3-18 09:41:48

感谢感谢感谢
回复 支持 反对

使用道具 举报

chris811209 发表于 2021-3-18 09:43:58

chris811209 18#

2021-3-18 09:43:58

谢谢楼主上传好资源!感激!
回复 支持 1 反对 0

使用道具 举报

   发表回复

您需要登录后才可以回帖 登录 | 立即注册

返回列表 本版积分规则

  • 在线客服

  • 返回顶部