微博 微信

Hao4K影音

电影频道
电影封面:
片  名: 困在时间里的父亲4K
电影分类: 剧情 
国  家: 美国 
年  代: 2020年
分 辨 率: 4K(3840x2160)
电影格式: MKV|REMUX 
画质标准: HDR10 
音质编码: Dolby Digital Plus Audio 
电影声道: 5.1声道 
帧数/FPS: 23.976 帧
电影语言: 英文原版 
资源大小: 10.29 GB
导  演: 佛罗莱恩·泽勒
豆瓣评分: 8.6 分
中文字幕: /thread-55682-1-1.html
剧情简介: 安东尼·霍普金斯、奥利维娅·科尔曼将出演,根据法国小说家兼剧作家佛罗莱恩·泽勒的舞台剧《父亲》改编的新片。霍普金斯饰演的角色是一个淘气而又高度独立的男人,随着年龄的增长,他拒绝了女儿安妮(科尔曼饰)的一切帮助。然而,在安妮决定和她的伴侣搬去巴黎后,这种帮助变得至关重要。父亲面对不断变化的环境时,他开始怀疑他所爱的人,他自己的思想,甚至他的现实结构。
  泽勒将执导本片,并与奥斯卡获奖编剧克里斯托弗·汉普顿([危险方法])合写剧本。该片将于本月在英国开拍。影片的制片人有大卫·帕菲特([莎翁情史])、让-路易·利维([唇语惊魂])、菲利普·卡卡松([时尚先锋香奈儿])等。
  这部由泽勒编剧和执导的舞台剧于2012年首次在巴黎上映,赢得了莫里哀奖的最佳舞台剧奖。之后该剧在纽约百老汇和伦敦西区上演,又同时拿下了托尼奖和奥利维尔奖的最佳男演员奖。
爸爸可否不要老(港) / 父亲 / 老父/困在时间里的父亲4K.The.Father.2020.2160p.AMZN.WEB-DL.x265.10bit.HDR10Plus.DDP5.1-4k电影信息
  1. Video
  2. ID : 1
  3. Format : HEVC
  4. Format/Info : High Efficiency Video Coding
  5. Format profile : Main 10@L5@Main
  6. HDR format : SMPTE ST 2094 App 4, Version 1, HDR10+ Profile B compatible
  7. Codec ID : V_MPEGH/ISO/HEVC
  8. Duration : 1 h 36 min
  9. Bit rate : 14.6 Mb/s
  10. Width : 3 840 pixels
  11. Height : 1 600 pixels
  12. Display aspect ratio : 2.40:1
  13. Frame rate mode : Constant
  14. Frame rate : 23.976 (24000/1001) FPS
  15. Color space : YUV
  16. Chroma subsampling : 4:2:0
  17. Bit depth : 10 bits
  18. Bits/(Pixel*Frame) : 0.099
  19. Stream size : 9.86 GiB (96%)
  20. Default : Yes
  21. Forced : No
  22. Color range : Limited
  23. Color primaries : BT.2020
  24. Transfer characteristics : PQ
  25. Matrix coefficients : BT.2020 non-constant
  26. Mastering display color primaries : Display P3
  27. Mastering display luminance : min: 0.0050 cd/m2, max: 4000 cd/m2
  28. Maximum Content Light Level : 474 cd/m2
  29. Maximum Frame-Average Light Level : 44 cd/m2

  30. Audio
  31. ID : 2
  32. Format : E-AC-3
  33. Format/Info : Enhanced AC-3
  34. Commercial name : Dolby Digital Plus
  35. Codec ID : A_EAC3
  36. Duration : 1 h 36 min
  37. Bit rate mode : Constant
  38. Bit rate : 640 kb/s
  39. Channel(s) : 6 channels
  40. Channel layout : L R C LFE Ls Rs
  41. Sampling rate : 48.0 kHz
  42. Frame rate : 31.250 FPS (1536 SPF)
  43. Compression mode : Lossy
  44. Stream size : 444 MiB (4%)
  45. Title : English
  46. Language : English
  47. Service kind : Complete Main
  48. Default : No
  49. Forced : No

  50. Text #1
  51. ID : 3
  52. Format : UTF-8
  53. Codec ID : S_TEXT/UTF8
  54. Codec ID/Info : UTF-8 Plain Text
  55. Duration : 1 h 32 min
  56. Bit rate : 58 b/s
  57. Count of elements : 1467
  58. Stream size : 39.7 KiB (0%)
  59. Title : English [SDH]
  60. Language : English
  61. Default : No
  62. Forced : No

  63. Text #2
  64. ID : 4
  65. Format : UTF-8
  66. Codec ID : S_TEXT/UTF8
  67. Codec ID/Info : UTF-8 Plain Text
  68. Duration : 1 h 29 min
  69. Bit rate : 56 b/s
  70. Count of elements : 1303
  71. Stream size : 36.8 KiB (0%)
  72. Title : English
  73. Language : English
  74. Default : No
  75. Forced : No
复制代码

请勿使用迅雷下载,此资源迅雷下载会提示没有版权,请换其他下载软件下载(推荐使用115下载

爸爸可否不要老(港) / 父亲 / 老父/困在时间里的父亲4K.The.Father.2020.2160p.AMZN.WEB-DL.x265.10bit.HDR10Plus.DDP5.1-4K电影下载
资源停止下载

困在时间里的父亲4K电影中文字幕下载 感谢K友@joy120分享的字幕
https://www.hao4k.cn/thread-55682-1-1.html
回复

使用道具 举报

全部回复89

fhj0122 发表于 2021-3-26 17:55:07

fhj0122 沙发

2021-3-26 17:55:07

好资源啊 ~~~~~~~~
回复 支持 反对

使用道具 举报

bzhou1973 发表于 2021-3-26 19:08:44

bzhou1973 板凳

2021-3-26 19:08:44

赞,金球的那些片子里,一直等着看这部
回复 支持 反对

使用道具 举报

施华蔻 发表于 2021-3-26 19:25:35

施华蔻 地板

2021-3-26 19:25:35

坐等REMUX
回复 支持 反对

使用道具 举报

yale 发表于 2021-3-26 20:11:15

yale 5#

2021-3-26 20:11:15

谢谢分享
回复 支持 反对

使用道具 举报

oyfj 发表于 2021-3-26 20:18:55

oyfj 6#

2021-3-26 20:18:55

感谢感谢分享
回复 支持 反对

使用道具 举报

好好孩子 发表于 2021-3-26 21:07:42

好好孩子 7#

2021-3-26 21:07:42

新手报道,多多帮助
回复 支持 反对

使用道具 举报

李销魂er 发表于 2021-3-26 21:56:40

李销魂er 8#

2021-3-26 21:56:40


新手报道,多多帮助
回复 支持 反对

使用道具 举报

taniszt 发表于 2021-3-26 22:27:12

taniszt 9#

2021-3-26 22:27:12

前两天才看到介绍,现在就有了,厉害
回复 支持 1 反对 0

使用道具 举报

249061170 发表于 2021-3-26 22:49:56

249061170 10#

2021-3-26 22:49:56

谢谢分享,安东尼霍普金斯
回复 支持 反对

使用道具 举报

spendyzzx 发表于 2021-3-26 23:17:59

spendyzzx 11#

2021-3-26 23:17:59

超级高分片啊,下来看看
回复 支持 反对

使用道具 举报

903jacob 发表于 2021-3-27 00:17:37

903jacob 12#

2021-3-27 00:17:37

谢谢分享
回复 支持 反对

使用道具 举报

lgq1956 发表于 2021-3-27 01:15:44

lgq1956 13#

2021-3-27 01:15:44

实力派,不错的电影,谢谢分享
回复 支持 反对

使用道具 举报

1552439777 发表于 2021-3-27 08:46:49

1552439777 14#

2021-3-27 08:46:49


哎,收集太慢了
回复 支持 反对

使用道具 举报

1552439777 发表于 2021-3-27 08:46:57

1552439777 15#

2021-3-27 08:46:57


哎,币收集太慢了
回复 支持 反对

使用道具 举报

叽哩噘咧 发表于 2021-3-27 09:33:56

叽哩噘咧 16#

2021-3-27 09:33:56

新手报道,多多帮助
回复 支持 反对

使用道具 举报

大中至正 发表于 2021-3-27 09:38:42

大中至正 17#

2021-3-27 09:38:42

谢谢分享   
回复 支持 反对

使用道具 举报

古典王国 发表于 2021-3-27 09:41:16

古典王国 18#

2021-3-27 09:41:16

感谢分享!!!
回复 支持 反对

使用道具 举报

   发表回复

您需要登录后才可以回帖 登录 | 立即注册

返回列表 本版积分规则

  • 在线客服

  • 返回顶部