微博 微信

Hao4K影音

电影频道
电影封面:
片  名: 小人物4K
电影分类: 动作 犯罪 
国  家: 美国 
年  代: 2021年
分 辨 率: 4K(3840x2160)
电影格式: MKV|REMUX 
画质标准: HDR10 
音质编码: Dolby Digital Plus Audio 
电影声道: 5.1声道 
帧数/FPS: 23.976 帧
电影语言: 英文原版 
资源大小: 9.96 GB
导  演: 伊利亚·奈舒勒
豆瓣评分: 7.8 分
中文字幕: /thread-56328-1-1.html
剧情简介: 一天晚上,Hutch(鲍勃·奥登科克 Bob Odenkirk 饰)位于郊区的家中遭两名小偷闯入。为了避免暴力冲突,Hutch没有为自己或是家人反击。他的儿子Blake(盖奇·芒罗 Gage Munroe 饰)对他感到很失望,他的老婆Becca(康妮·尼尔森 ConnieNielsen 饰)似乎也因此更加疏远他。这起事件激发了Hutch心中压抑许久的情绪和本能,促使他走上残酷的道路,将揭露他黑暗的秘密和致命的能力。在拳头、枪弹和急速行驶的车阵中,Hutch必须从危险的敌人(阿列克谢·谢列布里亚科夫 AlexeySerebryakov 饰)手中救出自己的家人,并确保别人不会再把他视作无名小卒。
杀神NOBODY(港) / 无名弑(台) / 无名小卒/小人物4K.Nobody.2021.2160p.AMZN.WEB-DL.x265.10bit.HDR10Plus.DDP5.1-4k电影信息
  1. Video
  2. ID : 1
  3. Format : HEVC
  4. Format/Info : High Efficiency Video Coding
  5. Format profile : Main 10@L5@Main
  6. HDR format : SMPTE ST 2094 App 4, Version 1, HDR10+ Profile B compatible
  7. Codec ID : V_MPEGH/ISO/HEVC
  8. Duration : 1 h 31 min
  9. Bit rate : 14.9 Mb/s
  10. Width : 3 840 pixels
  11. Height : 1 600 pixels
  12. Display aspect ratio : 2.40:1
  13. Frame rate mode : Constant
  14. Frame rate : 23.976 (24000/1001) FPS
  15. Color space : YUV
  16. Chroma subsampling : 4:2:0
  17. Bit depth : 10 bits
  18. Bits/(Pixel*Frame) : 0.101
  19. Stream size : 9.55 GiB (96%)
  20. Default : Yes
  21. Forced : No
  22. Color range : Limited
  23. Color primaries : BT.2020
  24. Transfer characteristics : PQ
  25. Matrix coefficients : BT.2020 non-constant
  26. Mastering display color primaries : Display P3
  27. Mastering display luminance : min: 0.0050 cd/m2, max: 1000 cd/m2
  28. Maximum Content Light Level : 1000 cd/m2
  29. Maximum Frame-Average Light Level : 312 cd/m2

  30. Audio
  31. ID : 2
  32. Format : E-AC-3
  33. Format/Info : Enhanced AC-3
  34. Commercial name : Dolby Digital Plus
  35. Codec ID : A_EAC3
  36. Duration : 1 h 31 min
  37. Bit rate mode : Constant
  38. Bit rate : 640 kb/s
  39. Channel(s) : 6 channels
  40. Channel layout : L R C LFE Ls Rs
  41. Sampling rate : 48.0 kHz
  42. Frame rate : 31.250 FPS (1536 SPF)
  43. Compression mode : Lossy
  44. Stream size : 420 MiB (4%)
  45. Language : English
  46. Service kind : Complete Main
  47. Default : Yes
  48. Forced : No

  49. Text #1
  50. ID : 3
  51. Format : UTF-8
  52. Codec ID : S_TEXT/UTF8
  53. Codec ID/Info : UTF-8 Plain Text
  54. Duration : 1 h 26 min
  55. Bit rate : 28 b/s
  56. Count of elements : 740
  57. Stream size : 18.1 KiB (0%)
  58. Language : English
  59. Default : Yes
  60. Forced : No

  61. Text #2
  62. ID : 4
  63. Format : UTF-8
  64. Codec ID : S_TEXT/UTF8
  65. Codec ID/Info : UTF-8 Plain Text
  66. Duration : 1 h 31 min
  67. Bit rate : 48 b/s
  68. Count of elements : 1329
  69. Stream size : 32.4 KiB (0%)
  70. Title : SDH
  71. Language : English
  72. Default : No
  73. Forced : No
复制代码

杀神NOBODY(港) / 无名弑(台) / 无名小卒/小人物4K.Nobody.2021.2160p.AMZN.WEB-DL.x265.10bit.HDR10Plus.DDP5.1-4K电影下载
小人物4K.Nobody.2021.2160p.AMZN.WEB-DL.x265.10bit.HDR10Plus.DDP5.1【4K HDR 9.96 GB】
[Hao4K]小人物4K.Nobody.2021.2160p.AMZN.WEB-DL.x265.10bit.HDR10Plus.DDP5.1-SWTYBLZ.torrent (50.47 KB, 售价: 3 K币)
回复

使用道具 举报

   发表回复

您需要登录后才可以回帖 登录 | 立即注册

返回列表 本版积分规则

  • 在线客服

  • 返回顶部