微博 微信

Hao4K影音

电影频道
电影封面:
片  名: 蓝与黑4K
电影分类: 动作 犯罪 惊悚 剧情 
国  家: 美国 
年  代: 2019年
分 辨 率: 4K(3840x2160)
电影格式: MKV|REMUX 
画质标准: HDR 
音质编码: DTS-HD Master Audio 
电影声道: 5.1声道 
帧数/FPS: 23.976 帧
电影语言: 英文原版 
资源大小: 23.43 GB
导  演: 德翁·泰勒
豆瓣评分: 6.5 分
中文字幕: -
剧情简介: 娜奥米·哈里斯将主演警探题材惊悚片[蓝与黑](Black And Blue,暂译),德翁·泰勒([假日惊魂])执导,彼得·A·道林([空中危机])操刀剧本。故事讲述一名新手警察(娜奥米饰)目睹了腐败官员谋杀一名毒贩的过程,而且她随身携带的摄像头录下了这一幕。她从这些腐败官员手里逃脱出来,陷入了被谋杀的危险境地。
黑与蓝 / Exposure / 警網黑幕(台)/蓝与黑4K.Black.and.Blue.2019.2160p.WEB-DL.x265.10bit.HDR.DTS-HD.MA.5.1-4k电影信息
  1. Video
  2. ID : 1
  3. Format : HEVC
  4. Format/Info : High Efficiency Video Coding
  5. Format profile : Main 10@L5.2@High
  6. HDR format : SMPTE ST 2086, HDR10 compatible
  7. Codec ID : V_MPEGH/ISO/HEVC
  8. Duration : 1 h 47 min
  9. Bit rate : 28.5 Mb/s
  10. Width : 3 840 pixels
  11. Height : 2 160 pixels
  12. Display aspect ratio : 16:9
  13. Frame rate mode : Constant
  14. Frame rate : 23.976 (24000/1001) FPS
  15. Color space : YUV
  16. Chroma subsampling : 4:2:0 (Type 2)
  17. Bit depth : 10 bits
  18. Bits/(Pixel*Frame) : 0.143
  19. Stream size : 21.5 GiB (92%)
  20. Language : English
  21. Default : Yes
  22. Forced : No
  23. Color range : Full
  24. Color primaries : BT.2020
  25. Transfer characteristics : PQ
  26. Matrix coefficients : BT.2020 non-constant
  27. Mastering display color primaries : Display P3
  28. Mastering display luminance : min: 0.0050 cd/m2, max: 4000 cd/m2
  29. Maximum Content Light Level : 10000 cd/m2
  30. Maximum Frame-Average Light Level : 694 cd/m2

  31. Audio #1
  32. ID : 2
  33. Format : DTS XLL
  34. Format/Info : Digital Theater Systems
  35. Commercial name : DTS-HD Master Audio
  36. Codec ID : A_DTS
  37. Duration : 1 h 47 min
  38. Bit rate mode : Variable
  39. Bit rate : 2 206 kb/s
  40. Channel(s) : 6 channels
  41. Channel layout : C L R Ls Rs LFE
  42. Sampling rate : 48.0 kHz
  43. Frame rate : 93.750 FPS (512 SPF)
  44. Bit depth : 16 bits
  45. Compression mode : Lossless
  46. Delay relative to video : 3 ms
  47. Stream size : 1.66 GiB (7%)
  48. Title : DTS-HD MA 5.1
  49. Language : English
  50. Default : Yes
  51. Forced : No

  52. Audio #2
  53. ID : 3
  54. Format : E-AC-3
  55. Format/Info : Enhanced AC-3
  56. Commercial name : Dolby Digital Plus
  57. Codec ID : A_EAC3
  58. Duration : 1 h 47 min
  59. Bit rate mode : Constant
  60. Bit rate : 384 kb/s
  61. Channel(s) : 6 channels
  62. Channel layout : L R C LFE Ls Rs
  63. Sampling rate : 48.0 kHz
  64. Frame rate : 31.250 FPS (1536 SPF)
  65. Compression mode : Lossy
  66. Stream size : 296 MiB (1%)
  67. Language : English
  68. Service kind : Complete Main
  69. Default : No
  70. Forced : No

  71. Text
  72. ID : 4
  73. Format : UTF-8
  74. Codec ID : S_TEXT/UTF8
  75. Codec ID/Info : UTF-8 Plain Text
  76. Duration : 1 h 43 min
  77. Bit rate : 50 b/s
  78. Count of elements : 1454
  79. Stream size : 38.3 KiB (0%)
  80. Title : English-SRT
  81. Language : English
  82. Default : Yes
  83. Forced : No

  84. Menu
  85. 00:00:00.000 : Chapter 01
  86. 00:05:26.284 : Chapter 02
  87. 00:10:36.886 : Chapter 03
  88. 00:16:38.581 : Chapter 04
  89. 00:23:32.995 : Chapter 05
  90. 00:30:25.532 : Chapter 06
  91. 00:39:08.888 : Chapter 07
  92. 00:47:23.674 : Chapter 08
  93. 00:55:04.176 : Chapter 09
  94. 01:01:54.544 : Chapter 10
  95. 01:09:42.595 : Chapter 11
  96. 01:17:41.782 : Chapter 12
  97. 01:21:47.152 : Chapter 13
  98. 01:24:41.368 : Chapter 14
  99. 01:30:23.710 : Chapter 15
  100. 01:40:20.973 : Chapter 16
复制代码

黑与蓝 / Exposure / 警網黑幕(台)/蓝与黑4K.Black.and.Blue.2019.2160p.WEB-DL.x265.10bit.HDR.DTS-HD.MA.5.1-4K电影下载

蓝与黑4K.Black.and.Blue.2019.2160p.WEB-DL.x265.10bit.HDR.DTS-HD.MA.5.1【4K HDR 23.43 GB】
[Hao4K]蓝与黑4K.Black.and.Blue.2019.2160p.WEB-DL.x265.10bit.HDR.DTS-HD.MA.5.1-SW.torrent (59.23 KB, 售价: 2 K币)
回复

使用道具 举报

   发表回复

您需要登录后才可以回帖 登录 | 立即注册

返回列表 本版积分规则

  • 在线客服

  • 返回顶部