微博 微信

Hao4K影音

电影频道
电影封面:
片  名: 选美小姐4k
电影分类: 剧情 
国  家: 美国 其他 
年  代: 2019年
分 辨 率: 4K(3840x2160)
电影格式: MKV|REMUX 
画质标准: HDR 
音质编码: DTS-HD Master Audio 
电影声道: 5.1声道 
帧数/FPS: 23.976 帧
电影语言: 中文简体 中文繁体 英文原版 
资源大小: 57.82 GB
导  演: 凯瑟琳·哈德威克
豆瓣评分: 5.9 分
中文字幕: /thread-56893-1-1.html
剧情简介:  [暮光之城]导演凯瑟琳·哈德威克将执导索尼新版[选美小姐]。2011年的影片[选美小姐]曾代表墨西哥参加第84届奥斯卡最佳外语片的角逐。故事讲述女模特格洛里亚(吉娜·罗德里格兹 饰)因目睹黑帮犯罪过程而导致生活发生天翻地覆的变化。
双面蝶/选美小姐4k Miss.Bala.2019.2160p.BCORE.WEB-DL.x265.10bit.HDR.DTS-HD.MA.5.1电影信息
  1. Video
  2. ID : 1
  3. Format : HEVC
  4. Format/Info : High Efficiency Video Coding
  5. Format profile : Main 10@L5.2@High
  6. HDR format : SMPTE ST 2086, HDR10 compatible
  7. Codec ID : V_MPEGH/ISO/HEVC
  8. Duration : 1 h 43 min
  9. Bit rate : 75.9 Mb/s
  10. Width : 3 840 pixels
  11. Height : 2 160 pixels
  12. Display aspect ratio : 16:9
  13. Frame rate mode : Constant
  14. Frame rate : 23.976 (24000/1001) FPS
  15. Color space : YUV
  16. Chroma subsampling : 4:2:0 (Type 2)
  17. Bit depth : 10 bits
  18. Bits/(Pixel*Frame) : 0.382
  19. Stream size : 55.1 GiB (95%)
  20. Language : English
  21. Default : Yes
  22. Forced : No
  23. Color range : Full
  24. Color primaries : BT.2020
  25. Transfer characteristics : PQ
  26. Matrix coefficients : BT.2020 non-constant
  27. Mastering display color primaries : Display P3
  28. Mastering display luminance : min: 0.0050 cd/m2, max: 4000 cd/m2
  29. Maximum Content Light Level : 4000 cd/m2
  30. Maximum Frame-Average Light Level : 1239 cd/m2

  31. Audio #1
  32. ID : 2
  33. Format : DTS XLL
  34. Format/Info : Digital Theater Systems
  35. Commercial name : DTS-HD Master Audio
  36. Codec ID : A_DTS
  37. Duration : 1 h 43 min
  38. Bit rate mode : Variable
  39. Bit rate : 2 220 kb/s
  40. Channel(s) : 6 channels
  41. Channel layout : C L R Ls Rs LFE
  42. Sampling rate : 48.0 kHz
  43. Frame rate : 93.750 FPS (512 SPF)
  44. Bit depth : 16 bits
  45. Compression mode : Lossless
  46. Stream size : 1.61 GiB (3%)
  47. Title : DTS-HD MA 5.1
  48. Language : English
  49. Default : Yes
  50. Forced : No

  51. Audio #2
  52. ID : 3
  53. Format : DTS
  54. Format/Info : Digital Theater Systems
  55. Codec ID : A_DTS
  56. Duration : 1 h 43 min
  57. Bit rate mode : Constant
  58. Bit rate : 768 kb/s
  59. Channel(s) : 6 channels
  60. Channel layout : C L R Ls Rs LFE
  61. Sampling rate : 48.0 kHz
  62. Frame rate : 93.750 FPS (512 SPF)
  63. Bit depth : 24 bits
  64. Compression mode : Lossy
  65. Stream size : 571 MiB (1%)
  66. Title : DTS 5.1
  67. Language : English
  68. Default : No
  69. Forced : No

  70. Audio #3
  71. ID : 4
  72. Format : AC-3
  73. Format/Info : Audio Coding 3
  74. Commercial name : Dolby Digital
  75. Codec ID : A_AC3
  76. Duration : 1 h 43 min
  77. Bit rate mode : Constant
  78. Bit rate : 640 kb/s
  79. Channel(s) : 6 channels
  80. Channel layout : L R C LFE Ls Rs
  81. Sampling rate : 48.0 kHz
  82. Frame rate : 31.250 FPS (1536 SPF)
  83. Compression mode : Lossy
  84. Stream size : 476 MiB (1%)
  85. Title : DD 5.1
  86. Language : English
  87. Service kind : Complete Main
  88. Default : No
  89. Forced : No

  90. Text #1
  91. ID : 5
  92. Format : UTF-8
  93. Codec ID : S_TEXT/UTF8
  94. Codec ID/Info : UTF-8 Plain Text
  95. Duration : 1 h 36 min
  96. Bit rate : 35 b/s
  97. Count of elements : 951
  98. Stream size : 24.9 KiB (0%)
  99. Language : English
  100. Default : Yes
  101. Forced : No

  102. Text #2
  103. ID : 6
  104. Format : PGS
  105. Muxing mode : zlib
  106. Codec ID : S_HDMV/PGS
  107. Codec ID/Info : Picture based subtitle format used on BDs/HD-DVDs
  108. Duration : 1 h 32 min
  109. Bit rate : 51 b/s
  110. Count of elements : 206
  111. Stream size : 34.9 KiB (0%)
  112. Title : Forced for foreign parts
  113. Language : English
  114. Default : No
  115. Forced : Yes

  116. Text #3
  117. ID : 7
  118. Format : PGS
  119. Muxing mode : zlib
  120. Codec ID : S_HDMV/PGS
  121. Codec ID/Info : Picture based subtitle format used on BDs/HD-DVDs
  122. Duration : 1 h 36 min
  123. Bit rate : 21.6 kb/s
  124. Count of elements : 1902
  125. Stream size : 15.0 MiB (0%)
  126. Language : English
  127. Default : No
  128. Forced : No

  129. Text #4
  130. ID : 8
  131. Format : PGS
  132. Muxing mode : zlib
  133. Codec ID : S_HDMV/PGS
  134. Codec ID/Info : Picture based subtitle format used on BDs/HD-DVDs
  135. Duration : 1 h 40 min
  136. Bit rate : 33.2 kb/s
  137. Count of elements : 2840
  138. Stream size : 23.9 MiB (0%)
  139. Title : SDH
  140. Language : English
  141. Default : No
  142. Forced : No

  143. Text #5
  144. ID : 9
  145. Format : PGS
  146. Muxing mode : zlib
  147. Codec ID : S_HDMV/PGS
  148. Codec ID/Info : Picture based subtitle format used on BDs/HD-DVDs
  149. Duration : 1 h 42 min
  150. Bit rate : 18.0 kb/s
  151. Count of elements : 1942
  152. Stream size : 13.1 MiB (0%)
  153. Title : Mandarin Simplified
  154. Language : Chinese
  155. Default : No
  156. Forced : No

  157. Text #6
  158. ID : 10
  159. Format : PGS
  160. Muxing mode : zlib
  161. Codec ID : S_HDMV/PGS
  162. Codec ID/Info : Picture based subtitle format used on BDs/HD-DVDs
  163. Duration : 1 h 42 min
  164. Bit rate : 17.6 kb/s
  165. Count of elements : 1942
  166. Stream size : 12.9 MiB (0%)
  167. Title : Mandarin Traditional
  168. Language : Chinese
  169. Default : No
  170. Forced : No

  171. Text #7
  172. ID : 11
  173. Format : PGS
  174. Muxing mode : zlib
  175. Codec ID : S_HDMV/PGS
  176. Codec ID/Info : Picture based subtitle format used on BDs/HD-DVDs
  177. Duration : 1 h 42 min
  178. Bit rate : 19.4 kb/s
  179. Count of elements : 1884
  180. Stream size : 14.1 MiB (0%)
  181. Language : French
  182. Default : No
  183. Forced : No

  184. Text #8
  185. ID : 12
  186. Format : PGS
  187. Muxing mode : zlib
  188. Codec ID : S_HDMV/PGS
  189. Codec ID/Info : Picture based subtitle format used on BDs/HD-DVDs
  190. Duration : 1 h 42 min
  191. Bit rate : 16.0 kb/s
  192. Count of elements : 2066
  193. Stream size : 11.8 MiB (0%)
  194. Language : Korean
  195. Default : No
  196. Forced : No

  197. Text #9
  198. ID : 13
  199. Format : PGS
  200. Muxing mode : zlib
  201. Codec ID : S_HDMV/PGS
  202. Codec ID/Info : Picture based subtitle format used on BDs/HD-DVDs
  203. Duration : 1 h 42 min
  204. Bit rate : 20.0 kb/s
  205. Count of elements : 1928
  206. Stream size : 14.6 MiB (0%)
  207. Title : Brazilian
  208. Language : Portuguese
  209. Default : No
  210. Forced : No

  211. Text #10
  212. ID : 14
  213. Format : PGS
  214. Muxing mode : zlib
  215. Codec ID : S_HDMV/PGS
  216. Codec ID/Info : Picture based subtitle format used on BDs/HD-DVDs
  217. Duration : 1 h 42 min
  218. Bit rate : 15.4 kb/s
  219. Count of elements : 1352
  220. Stream size : 11.3 MiB (0%)
  221. Title : Latin American
  222. Language : Spanish
  223. Default : No
  224. Forced : No

  225. Text #11
  226. ID : 15
  227. Format : PGS
  228. Muxing mode : zlib
  229. Codec ID : S_HDMV/PGS
  230. Codec ID/Info : Picture based subtitle format used on BDs/HD-DVDs
  231. Duration : 1 h 42 min
  232. Bit rate : 19.2 kb/s
  233. Count of elements : 1940
  234. Stream size : 14.0 MiB (0%)
  235. Language : Thai
  236. Default : No
  237. Forced : No

  238. Menu
  239. 00:00:00.000 : Chapter 1
  240. 00:05:31.706 : Chapter 2
  241. 00:12:15.777 : Chapter 3
  242. 00:17:39.600 : Chapter 4
  243. 00:24:00.439 : Chapter 5
  244. 00:27:02.621 : Chapter 6
  245. 00:35:19.034 : Chapter 7
  246. 00:41:09.801 : Chapter 8
  247. 00:46:20.236 : Chapter 9
  248. 00:55:58.021 : Chapter 10
  249. 00:59:22.768 : Chapter 11
  250. 01:03:48.950 : Chapter 12
  251. 01:09:17.945 : Chapter 13
  252. 01:20:28.741 : Chapter 14
  253. 01:25:28.373 : Chapter 15
  254. 01:30:06.610 : Chapter 16
复制代码


双面蝶/选美小姐4k Miss.Bala.2019.2160p.BCORE.WEB-DL.x265.10bit.HDR.DTS-HD.MA.5.1电影下载

选美小姐4k Miss.Bala.2019.2160p.BCORE.WEB-DL.x265.10bit.HDR.DTS-HD.MA.5.1【57.82 GB】
[Hao4k]选美小姐4k Miss.Bala.2019.2160p.BCORE.WEB-DL.x265.10bit.HDR.DTS-HD.MA.5.1.torrent (145.21 KB, 售价: 2 K币)
回复

使用道具 举报

全部回复58

deeper2021 发表于 2021-4-30 09:00:29

deeper2021 沙发

2021-4-30 09:00:29

沙发,第一次座,哈哈
回复 支持 反对

使用道具 举报

zzszengzeng 发表于 2021-4-30 09:02:41

zzszengzeng 板凳

2021-4-30 09:02:41

支持了,这个还可以,可以看看
回复 支持 反对

使用道具 举报

哎呦呵啊哈1 发表于 2021-4-30 09:11:39

哎呦呵啊哈1 地板

2021-4-30 09:11:39

谢谢楼主
回复 支持 反对

使用道具 举报

iris6267 发表于 2021-4-30 09:14:31

iris6267 5#

2021-4-30 09:14:31

感谢分享
回复 支持 反对

使用道具 举报

wulin 发表于 2021-4-30 09:17:01 Hao4K手机版

wulin 6#

2021-4-30 09:17:01

谢謝,大谢謝了
回复 支持 反对

使用道具 举报

无聊的老鹰 发表于 2021-4-30 09:37:57

无聊的老鹰 7#

2021-4-30 09:37:57

看上去很不错的样子,感谢分享
回复 支持 反对

使用道具 举报

axin666 发表于 2021-4-30 09:39:54

axin666 8#

2021-4-30 09:39:54

找了很久,谢谢
回复 支持 反对

使用道具 举报

cardinlai 发表于 2021-4-30 09:49:58

cardinlai 9#

2021-4-30 09:49:58

感谢分享
回复 支持 反对

使用道具 举报

Mitsubishi 发表于 2021-4-30 09:50:53

Mitsubishi 10#

2021-4-30 09:50:53

下载来看看
回复 支持 反对

使用道具 举报

MHQ1997 发表于 2021-4-30 10:17:34

MHQ1997 11#

2021-4-30 10:17:34

谢谢分享
回复 支持 反对

使用道具 举报

xxw8888 发表于 2021-4-30 10:31:54

xxw8888 12#

2021-4-30 10:31:54


感谢分享
回复 支持 反对

使用道具 举报

yangly 发表于 2021-4-30 10:35:18

yangly 13#

2021-4-30 10:35:18


下载来看看
回复 支持 反对

使用道具 举报

panbell 发表于 2021-4-30 11:10:41

panbell 14#

2021-4-30 11:10:41

感谢分享
回复 支持 反对

使用道具 举报

yexingderen424 发表于 2021-4-30 13:40:32

yexingderen424 15#

2021-4-30 13:40:32

这个还可以
回复 支持 反对

使用道具 举报

andywjhh 发表于 2021-4-30 15:06:54

andywjhh 16#

2021-4-30 15:06:54

好资源很给力
回复 支持 反对

使用道具 举报

dragon_walk 发表于 2021-4-30 15:53:32

dragon_walk 17#

2021-4-30 15:53:32

看着美女啊
回复 支持 反对

使用道具 举报

yxptj_cn 发表于 2021-4-30 16:42:18

yxptj_cn 18#

2021-4-30 16:42:18

主要是看美女
回复 支持 反对

使用道具 举报

   发表回复

您需要登录后才可以回帖 登录 | 立即注册

返回列表 本版积分规则

  • 在线客服

  • 返回顶部