微博 微信

Hao4K影音

电影频道
电影封面:
片  名: 朋友4k
电影分类: 剧情 
国  家: 美国 
年  代: 2019年
分 辨 率: 4K(3840x2160)
电影格式: MKV|REMUX 
画质标准: HDR 10+ 
音质编码: DTS-HD Master Audio 
电影声道: 5.1声道 
帧数/FPS: 23.976 帧
电影语言: 英文原版 
资源大小: 16.02 GB
导  演: 加芙列拉·考珀斯维特
豆瓣评分: 6.6 分
中文字幕: -
剧情简介: 根据马修·蒂格为《时尚先生》杂志撰写的获得国家杂志大奖的文章改编,布拉德·英格尔斯比操刀该剧本。故事讲述在得知伴侣妮可(约翰逊饰)只有六个月的生命后,马修(阿弗莱克饰)意外地得到了他们最好朋友(席格尔饰)的支持。他搬到了他们家,暂时搁置了自己的生活。
悲伤路上还有友你(港) / 友你真好(台) / 我们的朋友 / The Friend/朋友4k Our.Friend.2019.2160p.AMZN.WEB-DL.x265.10bit.HDR10Plus.DTS-HD.MA.5.1-4k电影信息
  1. Video
  2. ID : 1
  3. Format : HEVC
  4. Format/Info : High Efficiency Video Coding
  5. Format profile : Main 10@L5@Main
  6. HDR format : SMPTE ST 2094 App 4, Version 1, HDR10+ Profile B compatible
  7. Codec ID : V_MPEGH/ISO/HEVC
  8. Duration : 2 h 5 min
  9. Bit rate : 14.5 Mb/s
  10. Width : 3 840 pixels
  11. Height : 2 080 pixels
  12. Display aspect ratio : 1.85:1
  13. Frame rate mode : Constant
  14. Frame rate : 23.976 (24000/1001) FPS
  15. Color space : YUV
  16. Chroma subsampling : 4:2:0
  17. Bit depth : 10 bits
  18. Bits/(Pixel*Frame) : 0.076
  19. Stream size : 12.8 GiB (80%)
  20. Language : English
  21. Default : Yes
  22. Forced : No
  23. Color range : Limited
  24. Color primaries : BT.2020
  25. Transfer characteristics : PQ
  26. Matrix coefficients : BT.2020 non-constant
  27. Mastering display color primaries : Display P3
  28. Mastering display luminance : min: 0.0001 cd/m2, max: 1000 cd/m2
  29. Maximum Content Light Level : 1091 cd/m2
  30. Maximum Frame-Average Light Level : 285 cd/m2

  31. Audio #1
  32. ID : 2
  33. Format : DTS XLL
  34. Format/Info : Digital Theater Systems
  35. Commercial name : DTS-HD Master Audio
  36. Codec ID : A_DTS
  37. Duration : 2 h 5 min
  38. Bit rate mode : Variable
  39. Bit rate : 3 046 kb/s
  40. Channel(s) : 6 channels
  41. Channel layout : C L R Ls Rs LFE
  42. Sampling rate : 48.0 kHz
  43. Frame rate : 93.750 FPS (512 SPF)
  44. Bit depth : 24 bits
  45. Compression mode : Lossless
  46. Delay relative to video : 6 s 0 ms
  47. Stream size : 2.68 GiB (17%)
  48. Title : DTS-HD MA 5.1
  49. Language : English
  50. Default : Yes
  51. Forced : No

  52. Audio #2
  53. ID : 3
  54. Format : E-AC-3
  55. Format/Info : Enhanced AC-3
  56. Commercial name : Dolby Digital Plus
  57. Codec ID : A_EAC3
  58. Duration : 2 h 5 min
  59. Bit rate mode : Constant
  60. Bit rate : 640 kb/s
  61. Channel(s) : 6 channels
  62. Channel layout : L R C LFE Ls Rs
  63. Sampling rate : 48.0 kHz
  64. Frame rate : 31.250 FPS (1536 SPF)
  65. Compression mode : Lossy
  66. Stream size : 577 MiB (4%)
  67. Title : DDP 5.1
  68. Language : English
  69. Service kind : Complete Main
  70. Default : No
  71. Forced : No

  72. Text #1
  73. ID : 4
  74. Format : UTF-8
  75. Codec ID : S_TEXT/UTF8
  76. Codec ID/Info : UTF-8 Plain Text
  77. Duration : 1 h 58 min
  78. Bit rate : 74 b/s
  79. Count of elements : 2001
  80. Stream size : 64.6 KiB (0%)
  81. Language : English
  82. Default : Yes
  83. Forced : No

  84. Text #2
  85. ID : 5
  86. Format : UTF-8
  87. Codec ID : S_TEXT/UTF8
  88. Codec ID/Info : UTF-8 Plain Text
  89. Duration : 1 h 58 min
  90. Bit rate : 56 b/s
  91. Count of elements : 1771
  92. Stream size : 49.3 KiB (0%)
  93. Language : French
  94. Default : No
  95. Forced : No

  96. Menu
  97. 00:00:00.000 : Amazon Original
  98. 00:00:06.000 : Studio Logos
  99. 00:01:03.000 : Scene 3
  100. 00:16:17.000 : Scene 4
  101. 00:25:53.000 : Scene 5
  102. 00:39:11.000 : Scene 6
  103. 00:51:36.000 : Scene 7
  104. 01:05:38.000 : Scene 8
  105. 01:21:30.000 : Scene 9
  106. 01:38:45.000 : Scene 10
  107. 01:43:41.000 : Scene 11
  108. 01:44:42.000 : Scene 12
  109. 01:59:18.000 : Acknowledgement
  110. 01:59:59.000 : End Credits
复制代码

悲伤路上还有友你(港) / 友你真好(台) / 我们的朋友 / The Friend/朋友4k Our.Friend.2019.2160p.AMZN.WEB-DL.x265.10bit.HDR10Plus.DTS-HD.MA.5.1-4k电影下载
朋友4k Our.Friend.2019.2160p.AMZN.WEB-DL.x265.10bit.HDR10Plus.DTS-HD.MA.5.1【16.02GB】
[Hao4k]朋友4k Our.Friend.2019.2160p.AMZN.WEB-DL.x265.10bit.HDR10Plus.DTS-HD.MA.5.torrent (80.8 KB)
回复

使用道具 举报

全部回复34

lhgctt 发表于 2021-6-7 10:30:10

lhgctt 2

2021-6-7 10:30:10

谢谢分享,辛苦了
回复 支持 反对

使用道具 举报

bulleye 发表于 2021-6-7 11:02:52

bulleye 3

2021-6-7 11:02:52

真心感谢楼主的分享。因该是很感人的一部影片。谢谢您的辛苦付出。
回复 支持 反对

使用道具 举报

yangly 发表于 2021-6-7 11:57:36

yangly 4

2021-6-7 11:57:36

谢谢分享
回复 支持 反对

使用道具 举报

来杯威士忌 发表于 2021-6-7 16:36:03

来杯威士忌 5

2021-6-7 16:36:03

谢谢了  谢谢分享
回复 支持 反对

使用道具 举报

calvinjqm 发表于 2021-6-7 18:38:34

calvinjqm 6

2021-6-7 18:38:34

谢谢分享,一定要下载收藏。
回复 支持 反对

使用道具 举报

madgift 发表于 2021-6-7 19:48:21

madgift 7

2021-6-7 19:48:21

谢谢分享,等了好久了
回复 支持 反对

使用道具 举报

navyme 发表于 2021-6-7 19:52:04

navyme 8

2021-6-7 19:52:04

哪位大佬有字幕呀!
回复 支持 反对

使用道具 举报

z0987 发表于 2021-6-7 20:14:15

z0987 9

2021-6-7 20:14:15

感謝大大分享
回复 支持 反对

使用道具 举报

yale 发表于 2021-6-7 22:36:29

yale 10

2021-6-7 22:36:29

谢谢分享
回复 支持 反对

使用道具 举报

A254595 发表于 2021-6-7 23:11:00

A254595 11

2021-6-7 23:11:00

有字幕没呀?
回复 支持 反对

使用道具 举报

mo814876560 发表于 2021-6-8 08:03:39

mo814876560 12

2021-6-8 08:03:39

谢谢楼主的分享。
回复 支持 反对

使用道具 举报

Defoe128 发表于 2021-6-8 09:02:46

Defoe128 13

2021-6-8 09:02:46

navyme 发表于 2021-6-7 19:52
哪位大佬有字幕呀!

附件是英文字幕。

Our.Friend.2021.1080p.Bluray.DTS-HD.MA.5.1.X264-EVO.eng.srt

117.47 KB

回复 支持 反对

使用道具 举报

wangzhi691126 发表于 2021-6-8 09:14:23

wangzhi691126 14

2021-6-8 09:14:23

谢谢分享
回复 支持 反对

使用道具 举报

cdyangjun2019 发表于 2021-6-8 10:12:08

cdyangjun2019 15

2021-6-8 10:12:08

楼主辛苦了,谢谢分享
回复 支持 反对

使用道具 举报

ywf6168 发表于 2021-6-8 10:48:39 Hao4K手机版

ywf6168 16

2021-6-8 10:48:39

感谢分享
回复 支持 反对

使用道具 举报

bbgrnnji 发表于 2021-6-8 11:59:45

bbgrnnji 17

2021-6-8 11:59:45

不错的电影
回复 支持 反对

使用道具 举报

66孔子 发表于 2021-6-8 19:10:00

66孔子 18

2021-6-8 19:10:00

辛苦楼主分享
回复 支持 反对

使用道具 举报

   发表回复

您需要登录后才可以回帖 登录 | 立即注册

返回列表 本版积分规则

  • 在线客服

  • 返回顶部