微博 微信

Hao4K影音

电影频道
电影封面:
片  名: 绛帐海堂春4k
电影分类: 剧情 喜剧 爱情片 
国  家: 美国 
年  代: 更早
分 辨 率: 4K(3840x2160)
电影格式: MKV|REMUX 
画质标准: 其他 
音质编码: 其他AAC 
电影声道: 其他 
帧数/FPS: 23.976 帧
电影语言: 英文原版 
资源大小: 14.84 GB
导  演: 乔治·库克
豆瓣评分: 6.9 分
中文字幕: -
剧情简介:  本片女演员好莱坞红唇丽影 茱蒂·荷丽黛Judy Holliday获1951年第23届奥斯卡金像奖影后。
  财大气粗的布鲁克先生包下了酒店的一个楼层,随他而来的是他的情人比利。报社的记者保罗来完成他的专访,听任布鲁克先生滔滔不绝地讲述他的成功经验。他起家于贩毒,而他的第一份工作是卖报。随着他的生意越来越大,要与许多上流人物交流,可是他的比利不过是合唱队的二流演员,粗鲁、无知,开口就是错。于是布鲁克先生想到了一个办法,以每周200元的薪水雇保罗做她的教师,教她一些待人接物的技巧和礼仪,改变她原来大吵大嚷、缺乏教养的举止。
  待她有了初步的改变以后,比利开始瞧不起她的老板,因为他正是从前的自己,她开始反抗老板的意志,这使布鲁克后悔自己不该做当初的决定。
  乔治·顾柯(George Cukor),美国最杰出的导演之一,是好莱坞少见的擅长拍女性故事的导演。顾柯一生导演了65部影片;从30年代至60年代,均有佳作问世,堪称好莱坞的常青树,他5次获得奥斯卡最佳导演提名,并与1965年凭借《窈窕淑女》获最佳导演奖;美国导演协会于1981年向他颁发了终生成就奖。1978年美国电影协会特别为乔治·顾柯举办致敬会,在他以前只有5个影人受此殊荣。
绛帐海棠春 / 出位妙女郎 / 佳人也有约/绛帐海堂春4k Born.Yesterday.1950.2160p.WEB.H265-4k电影信息
  1. Video
  2. ID : 1
  3. Format : HEVC
  4. Format/Info : High Efficiency Video Coding
  5. Format profile : Main 10@L5@High
  6. Codec ID : V_MPEGH/ISO/HEVC
  7. Duration : 1 h 42 min
  8. Bit rate : 20.7 Mb/s
  9. Width : 2 888 pixels
  10. Height : 2 152 pixels
  11. Display aspect ratio : 4:3
  12. Frame rate mode : Constant
  13. Frame rate : 23.976 FPS
  14. Color space : YUV
  15. Chroma subsampling : 4:2:0
  16. Bit depth : 10 bits
  17. Bits/(Pixel*Frame) : 0.139
  18. Stream size : 14.8 GiB (99%)
  19. Default : Yes
  20. Forced : No
  21. Color range : Limited
  22. Color primaries : BT.709
  23. Transfer characteristics : BT.709
  24. Matrix coefficients : BT.709

  25. Audio
  26. ID : 2
  27. Format : AAC LC
  28. Format/Info : Advanced Audio Codec Low Complexity
  29. Codec ID : A_AAC-2
  30. Duration : 1 h 42 min
  31. Bit rate : 108 kb/s
  32. Channel(s) : 2 channels
  33. Channel layout : L R
  34. Sampling rate : 48.0 kHz
  35. Frame rate : 46.875 FPS (1024 SPF)
  36. Compression mode : Lossy
  37. Stream size : 79.3 MiB (1%)
  38. Title : English
  39. Language : English
  40. Default : No
  41. Forced : No

  42. Text #1
  43. ID : 3
  44. Format : UTF-8
  45. Codec ID : S_TEXT/UTF8
  46. Codec ID/Info : UTF-8 Plain Text
  47. Duration : 12 min 14 s
  48. Bit rate : 112 b/s
  49. Count of elements : 276
  50. Stream size : 10.1 KiB (0%)
  51. Title : English
  52. Language : English
  53. Default : No
  54. Forced : No

  55. Text #2
  56. ID : 4
  57. Format : UTF-8
  58. Codec ID : S_TEXT/UTF8
  59. Codec ID/Info : UTF-8 Plain Text
  60. Duration : 12 min 19 s
  61. Bit rate : 112 b/s
  62. Count of elements : 280
  63. Stream size : 10.2 KiB (0%)
  64. Title : English SDH
  65. Language : English
  66. Default : No
  67. Forced : No
复制代码


绛帐海棠春 / 出位妙女郎 / 佳人也有约/绛帐海堂春4k Born.Yesterday.1950.2160p.WEB.H265-4k电影下载

绛帐海堂春4k Born.Yesterday.1950.2160p.WEB.H265【14.84 GB】
[Hao4k]绛帐海堂春4k Born.Yesterday.1950.2160p.WEB.H265-EMPATHY.torrent (74.87 KB)
回复

使用道具 举报

全部回复10

hhhz 发表于 2021-6-30 10:35:57

hhhz 2

2021-6-30 10:35:57

黑白老片?看看那个年代的故事。
回复 支持 反对

使用道具 举报

yangly 发表于 2021-6-30 10:53:46

yangly 3

2021-6-30 10:53:46

黑白片吗?
回复 支持 反对

使用道具 举报

panbell 发表于 2021-6-30 11:20:42

panbell 4

2021-6-30 11:20:42

值得下载收藏
回复 支持 反对

使用道具 举报

wusongk 发表于 2021-6-30 12:26:04

wusongk 5

2021-6-30 12:26:04

谢谢楼主分享。
回复 支持 反对

使用道具 举报

qiujian1976 发表于 2021-6-30 12:39:31 Hao4K手机版

qiujian1976 6

2021-6-30 12:39:31

感受一下黑白电影独特的魅力 谢谢楼主
回复 支持 反对

使用道具 举报

xin2niu 发表于 2021-7-1 07:32:04

xin2niu 7

2021-7-1 07:32:04

谢谢分享昂
回复 支持 反对

使用道具 举报

月光麦田 发表于 2021-7-2 08:45:18

月光麦田 8

2021-7-2 08:45:18

谢谢分享
回复 支持 反对

使用道具 举报

shengfan007 发表于 2021-7-3 22:49:17

shengfan007 9

2021-7-3 22:49:17

不要以为年代久远了,这才是经典
回复 支持 反对

使用道具 举报

dqxa 发表于 2021-7-4 05:45:25

dqxa 10

2021-7-4 05:45:25

经典老电影,值得下载。
回复 支持 反对

使用道具 举报

jackss 发表于 2021-7-10 13:10:12

jackss 11

2021-7-10 13:10:12

感谢楼主分享
回复 支持 反对

使用道具 举报

   发表回复

您需要登录后才可以回帖 登录 | 立即注册

返回列表 本版积分规则

  • 在线客服

  • 返回顶部