微博 微信 APP

Hao4K影音

电影频道
电影封面:
片  名: 永恒族4k
电影分类: 动作 科幻 冒险 
国  家: 美国 英国 
年  代: 2021年
分 辨 率: 4K(3840x2160)
电影格式: MKV|REMUX 
画质标准: HDR 
音质编码: Dolby Digital Plus Audio 
电影声道: 5.1声道 
帧数/FPS: 23.976 帧
电影语言: 英文原版 
资源大小: 27.30 GB
导  演: 赵婷
豆瓣评分: 6.7 分
中文字幕: /thread-66588-1-1.html
剧情简介: 《永恒族》讲述漫威电影宇宙中一支令人兴奋的新的超级英雄团队,他们是古老的外星人,在地球上秘密生活了数千年。在《复仇者联盟4:终局之战》的事件之后,一场意外的悲剧使得他们不得不走出来,团结一心对抗人类最为古老的敌人:变异族。
永恒神族 / The Eternals/永恒族4k.Eternals.2021.2160p.WEB-DL.x265.10bit.HDR.DDP5.1.Atmos-4k电影信息
  1. Video
  2. ID : 1
  3. Format : HEVC
  4. Format/Info : High Efficiency Video Coding
  5. Format profile : Main 10@L5@High
  6. HDR format : SMPTE ST 2086, HDR10 compatible
  7. Codec ID : V_MPEGH/ISO/HEVC
  8. Duration : 2 h 35 min
  9. Bit rate : 24.3 Mb/s
  10. Width : 3 840 pixels
  11. Height : 1 608 pixels
  12. Display aspect ratio : 2.40:1
  13. Frame rate mode : Constant
  14. Frame rate : 23.976 (24000/1001) FPS
  15. Color space : YUV
  16. Chroma subsampling : 4:2:0 (Type 2)
  17. Bit depth : 10 bits
  18. Bits/(Pixel*Frame) : 0.164
  19. Stream size : 26.5 GiB (97%)
  20. Default : Yes
  21. Forced : No
  22. Color range : Limited
  23. Color primaries : BT.2020
  24. Transfer characteristics : PQ
  25. Matrix coefficients : BT.2020 non-constant
  26. Mastering display color primaries : BT.2020
  27. Mastering display luminance : min: 0.0050 cd/m2, max: 1000 cd/m2
  28. Maximum Content Light Level : 397 cd/m2
  29. Maximum Frame-Average Light Level : 139 cd/m2

  30. Audio
  31. ID : 2
  32. Format : E-AC-3 JOC
  33. Format/Info : Enhanced AC-3 with Joint Object Coding
  34. Commercial name : Dolby Digital Plus with Dolby Atmos
  35. Codec ID : A_EAC3
  36. Duration : 2 h 35 min
  37. Bit rate mode : Constant
  38. Bit rate : 768 kb/s
  39. Channel(s) : 6 channels
  40. Channel layout : L R C LFE Ls Rs
  41. Sampling rate : 48.0 kHz
  42. Frame rate : 31.250 FPS (1536 SPF)
  43. Compression mode : Lossy
  44. Stream size : 856 MiB (3%)
  45. Language : English
  46. Service kind : Complete Main
  47. Default : Yes
  48. Forced : No
  49. Complexity index : 16
  50. Number of dynamic objects : 15
  51. Bed channel count : 1 channel
  52. Bed channel configuration : LFE

  53. Text #1
  54. ID : 3
  55. Format : UTF-8
  56. Codec ID : S_TEXT/UTF8
  57. Codec ID/Info : UTF-8 Plain Text
  58. Duration : 2 h 33 min
  59. Bit rate : 41 b/s
  60. Count of elements : 1784
  61. Stream size : 46.6 KiB (0%)
  62. Language : English
  63. Default : Yes
  64. Forced : No

  65. Text #2
  66. ID : 4
  67. Format : UTF-8
  68. Codec ID : S_TEXT/UTF8
  69. Codec ID/Info : UTF-8 Plain Text
  70. Duration : 2 h 33 min
  71. Bit rate : 51 b/s
  72. Count of elements : 2210
  73. Stream size : 58.2 KiB (0%)
  74. Title : SDH
  75. Language : English
  76. Default : No
  77. Forced : No

  78. Text #3
  79. ID : 5
  80. Format : UTF-8
  81. Codec ID : S_TEXT/UTF8
  82. Codec ID/Info : UTF-8 Plain Text
  83. Duration : 2 h 35 min
  84. Bit rate : 41 b/s
  85. Count of elements : 1645
  86. Stream size : 47.6 KiB (0%)
  87. Language : Spanish
  88. Default : No
  89. Forced : No

  90. Text #4
  91. ID : 6
  92. Format : UTF-8
  93. Codec ID : S_TEXT/UTF8
  94. Codec ID/Info : UTF-8 Plain Text
  95. Duration : 2 h 35 min
  96. Bit rate : 2 b/s
  97. Count of elements : 116
  98. Stream size : 3.13 KiB (0%)
  99. Title : FORCED
  100. Language : Spanish
  101. Default : No
  102. Forced : No
复制代码

永恒神族 / The Eternals/永恒族4k.Eternals.2021.2160p.WEB-DL.x265.10bit.HDR.DDP5.1.Atmos-4k电影下载

永恒族4k.Eternals.2021.2160p.WEB-DL.x265.10bit.HDR.DDP5.1.Atmos【4k HDR 27.30 GB】
[Hao4k]永恒族4k.Eternals.2021.2160p.WEB-DL.x265.10bit.HDR.DDP5.1.Atmos-NOGRP.torrent (34.78 KB, 售价: 3 个K币)
回复

使用道具 举报

   发表回复

您需要登录后才可以回帖 登录 | 立即注册

返回列表 本版积分规则

  • 发布新帖

  • 客服/帮助

  • 手机APP

  • 返回顶部