专注4K家庭影音, 服务千万家庭影音发烧友!
手机版
访问手机版

在线
客服

Hao4K影音在线客服服务时间: 9:00-24:00

选择下列客服马上在线沟通:

快速
发帖

关注
微信

关注微信二维码
顶部

夏福特4k 夏福特Shaft.2019.2160p.BluRay.REMUX.HEVC.HDR10plus.TrueHD.7.1.Atmos.Dual-Hao4K电影

[复制链接]
kjhftuier 发表于 2019-9-10 17:29:07 | 显示全部楼层 |阅读模式 打印 上一主题 下一主题
电影频道
电影封面:
片  名: 夏福特4k
电影分类: 喜剧   
国  家: 美国   
年  代: 2019
分 辨 率: 4K(3840x2160)    
电影格式: MKV|REMUX   
画质标准: HDR    
音质编码: Dolby-Atmos    
电影声道: 7.1声道    
电影语言: 英文原版     
资源大小: 52.3 GB
导  演: 蒂姆·斯托瑞
豆瓣评分:
中文字幕: -
剧情简介: 杰西·厄舍加盟[杀戮战警]续作[夏福特之子](Son of Shaft,暂译),塞缪尔·杰克逊同时回归。本片由蒂姆·斯托瑞([佐州自救兄弟])执导,肯尼亚·巴里斯编剧。厄舍扮演杰克逊的儿子,他同时也是一名联邦调查局工作人员,更是网络专家。
 
夏福特Shaft.2019.2160p.BluRay.REMUX.HEVC.HDR10plus.TrueHD.7.1.Atmos.Dual-Hao4K电影信息:/ ]" X8 O$ ~, @
  1. Format : Matroska2 x/ g/ U* O4 x, \
  2. Format version : Version 4 / Version 2
    : k: g6 W: ~0 `% F8 _+ @! f4 t- y1 v: B
  3. File size : 52.3 GiB
    9 }4 F% x% I& ^* e% r! k
  4. Duration : 1h 52mn8 L2 a+ x9 ^' G* q1 F; z3 A1 L
  5. Overall bit rate mode : Variable6 j; Z/ y, j4 n9 ~1 b* I
  6. Overall bit rate : 66.8 Mbps
    8 K- N9 T3 X5 b3 T
  7. Movie name : BaixarBluray.net - Alta Definição é Aqui! D4 t  [9 ?5 M
  8. Encoded date : UTC 2019-09-20 14:55:38, _! e! y# j1 R
  9. Writing application : mkvmerge v35.0.0 ('All The Love In The World') 64-bit
    ( T5 t& O7 v. d! `6 c/ f  F
  10. Writing library : libebml v1.3.9 + libmatroska v1.5.2
    3 E2 D0 L2 V0 D6 ^2 d0 E: r
  11. - ?& a* o0 N$ R: \5 F
  12. Video& a7 A9 D3 _: v% b
  13. ID : 16 |6 W& Z) V9 b3 g- G, d
  14. Format : HEVC! W1 _/ |# [" E/ k# a8 W
  15. Format/Info : High Efficiency Video Coding
    ; k" a0 M' a% [6 A5 [- y
  16. Format profile : Main 10@L5.1@High
    3 g3 S6 ?2 d, z+ |
  17. Codec ID : V_MPEGH/ISO/HEVC
    * O# s! z# ?/ c& ?
  18. Duration : 1h 51mn
    4 c# o  F7 ~; }; P' k3 {
  19. Bit rate : 62.3 Mbps
    8 b- K. n  x) }( }2 G' d
  20. Width : 3 840 pixels
    # O8 m1 E+ G. b8 l" q
  21. Height : 2 160 pixels
    8 F, K3 p2 ~$ h
  22. Display aspect ratio : 16:9* V/ W) s* Q0 E* r) p
  23. Frame rate mode : Constant
    * u+ r1 c$ E+ A4 w+ L; O7 a
  24. Frame rate : 23.976 (24000/1001) fps5 s! ]8 @" @, i
  25. Standard : Component1 R1 l1 Q) q% T( u. d7 I$ D: I
  26. Color space : YUV: @: k  c( g) a1 F3 g) d
  27. Chroma subsampling : 4:2:0' S+ T$ }- x3 T
  28. Bit depth : 10 bits
    9 ?7 D& Q& M$ W- B7 p! Y# r3 K8 z+ j7 g
  29. Bits/(Pixel*Frame) : 0.313
    2 Z& f8 ^9 \( d" E
  30. Stream size : 48.6 GiB (93%)# L( r9 w1 f6 S
  31. Title : BaixarBluray.net - Alta Definição é Aqui8 @  N& W, h% q) j; o
  32. Default : Yes4 a; h( W- x! [$ j& i' h+ t
  33. Forced : No
    8 Z7 O/ [2 j1 ~( q) q& C2 z8 F- {8 e
  34. Color range : Limited7 }. W- g1 ]. {: X$ S

  35. $ }9 S- X& I, {7 m7 P
  36. Audio #1
    # j* p& Z& n9 e
  37. ID : 2, W9 d- W. _+ B: k2 I
  38. Format : Atmos / TrueHD) j, L' E6 L' P+ O7 z# F! U4 c
  39. Codec ID : A_TRUEHD9 }& p8 u3 I1 ]) n9 Q/ C- \8 J
  40. Duration : 1h 51mn
    4 W* X  j+ e0 o2 w
  41. Bit rate mode : Variable, v: B( J! e( h
  42. Bit rate : 3 622 Kbps
    9 A1 G* D% J; u7 O, V2 ^5 o0 m( u
  43. Maximum bit rate : 6 336 Kbps; T0 u# K+ ^+ P% B& q
  44. Channel(s) : Object Based / 8 channels
    8 O2 N7 e) q# y% g  \
  45. Channel positions : Object Based / Front: L C R, Side: L R, Back: L R, LFE& E( k( U: z# Q$ m
  46. Sampling rate : / 48.0 KHz
    , }" L2 O5 x/ d: x& i
  47. Frame rate : 1 200.000 fps (40 spf)! ~6 I7 Y5 s' v& P7 W0 b
  48. Compression mode : Lossless! N, p0 p3 q" S# R% y0 h% v
  49. Stream size : 2.82 GiB (5%)
    8 ^1 M% {, O* [' y' w3 I* r
  50. Title : Surround 7.1; D0 ?* D& s3 b% j( q
  51. Language : English
    ; W" l6 \$ j$ r) {9 u6 s1 `
  52. Default : Yes. {. R/ B0 O" `* h* Q
  53. Forced : No" {) r7 c* B9 z/ ]
  54. 7 @3 ^, e4 N0 H
  55. Audio #27 b" `/ @, |! ?( _8 C9 r$ T
  56. ID : 3
    0 x( ]& \4 b$ ?& T8 t/ o0 v
  57. Format : AC-32 R2 ]% y6 q5 Z% e" Z7 ], _; G* S" y% M
  58. Format/Info : Audio Coding 3
    , ?  d% m1 [( W+ ]' ]) ~) t# g
  59. Mode extension : CM (complete main)
    , x) C( x7 O! ]) H
  60. Format settings, Endianness : Big9 n! L( b" _0 I
  61. Codec ID : A_AC3
    + u& @2 s( T$ [; X$ G
  62. Duration : 1h 51mn
    $ x( E7 w  s: ]1 ?
  63. Bit rate mode : Constant  u# M8 k1 }$ M0 r' g# _% U
  64. Bit rate : 640 Kbps& n1 e8 R. C) w
  65. Channel(s) : 6 channels
    ' ]1 w# J2 ]8 ]. {3 B0 U
  66. Channel positions : Front: L C R, Side: L R, LFE! x# M; p# ]+ ?0 g( q
  67. Sampling rate : 48.0 KHz
    / L; Q7 {/ G. @9 b. J; b8 i  r
  68. Frame rate : 31.250 fps (1536 spf)0 g5 q: |4 i# b; p, x
  69. Compression mode : Lossy
    , P' x! i6 O, L& x  v
  70. Stream size : 511 MiB (1%)+ L( O$ v  T6 G. `) D' @7 q, H, W
  71. Title : Surround 5.1, @; }/ M: r* M5 y; \
  72. Language : English
    ( }; e3 h3 |8 c& o  G2 i: F4 \
  73. Default : No
    - L) w" n/ P  w- |
  74. Forced : No1 P7 A* v6 _5 Q- p

  75. $ j+ z  R* c* l+ z) h" C
  76. Audio #3" E$ m' g" w! x
  77. ID : 4
    0 l' k+ b( F: c, k
  78. Format : AC-3
    + O& G( R) w# |: f; w
  79. Format/Info : Audio Coding 3
    ( }) \9 F) V2 d) o! V3 S$ z: A9 \! N
  80. Mode extension : CM (complete main)
    ) C+ d8 K& S) E' `& j
  81. Format settings, Endianness : Big" F" X; x; d; f. D  ^
  82. Codec ID : A_AC3! o9 s  i8 ^" _( u, Q
  83. Duration : 1h 52mn; Q, o/ v- u# P2 W
  84. Bit rate mode : Constant
    7 ?; h* ~8 p! W% M! x# d6 `
  85. Bit rate :
复制代码

% D$ s! W2 x( s+ V& U& W0 C1 A+ K豆瓣评分:6.8% n% e* G% f0 }! s+ A, l% ^. U
辣手刑警 2:勉强父子档(港) / 新杀戮战警(台) / 杀戮战警2 / 铁杆神探2 / 夏福特之子 / Shaft 2 / Son of Shaft/夏福特4k Shaft.2019.INTERNAL.2160p.WEB.H265电影下载
6 I, m8 r, E# y# P% @- R夏福特Shaft.2019.2160p.BluRay.REMUX.HEVC.HDR10plus.TrueHD.7.1.Atmos.Dual-Hao4K【4K UHD蓝光 REMUX 2160P  52.39GB】
" I+ V8 q7 m# j2 \ 夏福特4K.Shaft.2019.2160p.BluRay.REMUX.HEVC.HDR10plus.TrueHD.7.1.Atmos.Dual-Hao4K.torrent
(附件大小: 279.23 KB   资源售价: 3 K币)
回复

使用道具 举报

 

精彩评论27

倒序浏览
好热的冬天 发表于 2019-11-8 21:52:44 | 显示全部楼层
 
没看过试试看下怎么样?谢谢分享
回复 支持 反对

使用道具 举报

 
jinxiao9912 发表于 2019-10-27 18:36:08 | 显示全部楼层
 
mlgbdxl 发表于 2019年10月10日 11:17- [1 w. l0 C5 p" L
感谢楼主的分享,谢谢。

; c+ b. t7 C) ahhhhhhhhhhhhhhhh
回复 支持 反对

使用道具 举报

 
Hwi 发表于 2019-10-20 23:48:43 | 显示全部楼层
 
感谢楼主分享!!!!
回复 支持 反对

使用道具 举报

 
mlgbdxl 发表于 2019-10-10 11:17:17 | 显示全部楼层
 
感谢楼主的分享,谢谢。
回复 支持 反对

使用道具 举报

 
gwt_25807 发表于 2019-10-10 09:21:06 | 显示全部楼层
 
夏福特4k Shaft.2019.INTERNAL.2160p.WEB.H265【19.88 GB】
% S* D* J3 q2 d0 d这个链接购买后,打开没有提示下载种子。
回复 支持 反对

使用道具 举报

 
wy787425346 发表于 2019-10-9 00:59:04 | 显示全部楼层
 
dxq709394 发表于 2019年9月11日 21:31, L; S2 I: |* G) w2 [( M3 t" ]( K/ t
局长的戏!!
: z" q. G9 D# n$ G
请问必须要是7.1声道才能下载看吗?
回复 支持 反对

使用道具 举报

 
bonoc 发表于 2019-10-5 17:21:36 | 显示全部楼层
 
0 G8 g7 o" |, q8 X( o, l( K, `8 f
谢谢发帖,支持
回复 支持 反对

使用道具 举报

 
wyc891012 发表于 2019-10-3 21:50:54 | 显示全部楼层
 
请问有字幕下载地址吗
回复 支持 反对

使用道具 举报

 
huangtzurong 发表于 2019-9-29 22:58:10 | 显示全部楼层
 
本帖最后由 huangtzurong 于 2019年10月1日 16:33 编辑
) m0 M, N' A) G# Z" Q, [+ U
0 G. k5 Q# c, U; e先來Remux嘗鮮!!6 B3 D1 T+ J$ {# H
* K# M4 i- U+ a+ I- F- A. R) ]. n
下2天了,種子斷斷續續的!!
回复 支持 反对

使用道具 举报

 
sw801003 发表于 2019-9-27 12:34:45 | 显示全部楼层
 
+ f4 B# x8 i; W( Q) R
评分看来还可以吧
回复 支持 反对

使用道具 举报

 
mmdlj 发表于 2019-9-23 16:02:02 | 显示全部楼层
 
辣手刑警 2:勉强父子档,感谢楼主分享
回复 支持 反对

使用道具 举报

 
sw801003 发表于 2019-9-13 22:22:33 | 显示全部楼层
 
谢谢发帖,支持
回复 支持 反对

使用道具 举报

 
BOQIJIN 发表于 2019-9-13 21:22:37 来自手机 | 显示全部楼层
 
这电影好看吗?
回复 支持 反对

使用道具 举报

 
Hao4k网友  发表于 2019-9-13 16:16:18
 
手机能下不
回复 支持 反对

使用道具

 
xv6950 发表于 2019-9-13 10:56:50 | 显示全部楼层
 
感谢分享.中秋节快乐!
回复 支持 反对

使用道具 举报

 
tuzhuding 发表于 2019-9-12 22:59:21 | 显示全部楼层
 
新片,值得期待
回复 支持 反对

使用道具 举报

 
shengfan007 发表于 2019-9-12 21:06:51 | 显示全部楼层
 
评分看来还可以吧
回复 支持 反对

使用道具 举报

 
您需要登录后才可以回帖 登录 | 立即注册

本版积分规则


0关注

52粉丝

100帖子

排行榜
作者专栏

关注微信公众号第一时间推送精彩

官方微信

手机访问

Hao4K影音

专注4k庭影音,提供家庭影音社区、家庭影音器材库、影音问答平台、影音商城服务家庭影音用户。

本站内容部分由用户自主分享和转载自互联网,转载目的在于传递更多信息,并不代表本网赞同其观点和对其真实性负责。

如有侵权、违反国家法律政策行为,请联系我们,我们会第一时间及时清除和处理!

举报反馈邮箱:admin@hao4k.cn

Copyright   ©2016-2019  Hao4K影音Powered by©Hao4K 粤公网安备 44030302001429号   粤ICP备18155646号-1 |网站地图