专注4K家庭影音, 服务千万家庭影音发烧友!

夏福特4k 夏福特Shaft.2019.2160p.BluRay.REMUX.HEVC.HDR10plus.TrueHD.7.1.Atmos.Dual-Hao4K电影

kjhftuier 发表于 2019-9-10 17:29:07 | 显示全部楼层
电影频道
电影封面:
片  名: 夏福特4k
电影分类: 喜剧 
国  家: 美国 
年  代: 2019年
分 辨 率: 4K(3840x2160)
电影格式: MKV|REMUX 
画质标准: HDR 
音质编码: Dolby-Atmos 
电影声道: 7.1声道 
帧数/FPS: FPS
电影语言: 英文原版 
资源大小: 52.3 GB
导  演: 蒂姆·斯托瑞
豆瓣评分:
中文字幕: -
剧情简介: 杰西·厄舍加盟[杀戮战警]续作[夏福特之子](Son of Shaft,暂译),塞缪尔·杰克逊同时回归。本片由蒂姆·斯托瑞([佐州自救兄弟])执导,肯尼亚·巴里斯编剧。厄舍扮演杰克逊的儿子,他同时也是一名联邦调查局工作人员,更是网络专家。
夏福特Shaft.2019.2160p.BluRay.REMUX.HEVC.HDR10plus.TrueHD.7.1.Atmos.Dual-Hao4k电影信息:
  1. Format : Matroska
  2. Format version : Version 4 / Version 2
  3. File size : 52.3 GiB
  4. Duration : 1h 52mn
  5. Overall bit rate mode : Variable
  6. Overall bit rate : 66.8 Mbps
  7. Movie name : BaixarBluray.net - Alta Definição é Aqui
  8. Encoded date : UTC 2019-09-20 14:55:38
  9. Writing application : mkvmerge v35.0.0 ('All The Love In The World') 64-bit
  10. Writing library : libebml v1.3.9 + libmatroska v1.5.2

  11. Video
  12. ID : 1
  13. Format : HEVC
  14. Format/Info : High Efficiency Video Coding
  15. Format profile : Main 10@L5.1@High
  16. Codec ID : V_MPEGH/ISO/HEVC
  17. Duration : 1h 51mn
  18. Bit rate : 62.3 Mbps
  19. Width : 3 840 pixels
  20. Height : 2 160 pixels
  21. Display aspect ratio : 16:9
  22. Frame rate mode : Constant
  23. Frame rate : 23.976 (24000/1001) fps
  24. Standard : Component
  25. Color space : YUV
  26. Chroma subsampling : 4:2:0
  27. Bit depth : 10 bits
  28. Bits/(Pixel*Frame) : 0.313
  29. Stream size : 48.6 GiB (93%)
  30. Title : BaixarBluray.net - Alta Definição é Aqui
  31. Default : Yes
  32. Forced : No
  33. Color range : Limited

  34. Audio #1
  35. ID : 2
  36. Format : Atmos / TrueHD
  37. Codec ID : A_TRUEHD
  38. Duration : 1h 51mn
  39. Bit rate mode : Variable
  40. Bit rate : 3 622 Kbps
  41. Maximum bit rate : 6 336 Kbps
  42. Channel(s) : Object Based / 8 channels
  43. Channel positions : Object Based / Front: L C R, Side: L R, Back: L R, LFE
  44. Sampling rate : / 48.0 KHz
  45. Frame rate : 1 200.000 fps (40 spf)
  46. Compression mode : Lossless
  47. Stream size : 2.82 GiB (5%)
  48. Title : Surround 7.1
  49. Language : English
  50. Default : Yes
  51. Forced : No

  52. Audio #2
  53. ID : 3
  54. Format : AC-3
  55. Format/Info : Audio Coding 3
  56. Mode extension : CM (complete main)
  57. Format settings, Endianness : Big
  58. Codec ID : A_AC3
  59. Duration : 1h 51mn
  60. Bit rate mode : Constant
  61. Bit rate : 640 Kbps
  62. Channel(s) : 6 channels
  63. Channel positions : Front: L C R, Side: L R, LFE
  64. Sampling rate : 48.0 KHz
  65. Frame rate : 31.250 fps (1536 spf)
  66. Compression mode : Lossy
  67. Stream size : 511 MiB (1%)
  68. Title : Surround 5.1
  69. Language : English
  70. Default : No
  71. Forced : No

  72. Audio #3
  73. ID : 4
  74. Format : AC-3
  75. Format/Info : Audio Coding 3
  76. Mode extension : CM (complete main)
  77. Format settings, Endianness : Big
  78. Codec ID : A_AC3
  79. Duration : 1h 52mn
  80. Bit rate mode : Constant
  81. Bit rate :
复制代码

豆瓣评分:6.8
辣手刑警 2:勉强父子档(港) / 新杀戮战警(台) / 杀戮战警2 / 铁杆神探2 / 夏福特之子 / Shaft 2 / Son of Shaft/夏福特4k Shaft.2019.INTERNAL.2160p.WEB.H265电影下载
夏福特Shaft.2019.2160p.BluRay.REMUX.HEVC.HDR10plus.TrueHD.7.1.Atmos.Dual-Hao4K【4K UHD蓝光 REMUX 2160P  52.39GB】
夏福特4K.Shaft.2019.2160p.BluRay.REMUX.HEVC.HDR10plus.TrueHD.7.1.Atmos.Dual-Hao4K.torrent
(279.23 KB, 售价: 3 K币)
回复

使用道具 举报

发烧友评论38

倒序浏览
JoeMerge 发表于 2020-6-5 18:24:06 | 显示全部楼层

楼主发贴辛苦了,谢谢楼主分享!
回复 支持 反对

使用道具 举报

bino118 发表于 2020-4-20 19:39:04 | 显示全部楼层
谢谢楼主的分享
回复 支持 反对

使用道具 举报

thgking 发表于 2020-3-4 20:30:45 | 显示全部楼层
感谢楼主的分享!
回复 支持 反对

使用道具 举报

fyiran 发表于 2020-2-9 20:39:40 | 显示全部楼层
谢谢发帖,支持
回复 支持 反对

使用道具 举报

hhhssy 发表于 2020-1-28 17:25:15 | 显示全部楼层
谢谢楼主分享
回复 支持 反对

使用道具 举报

joeatnz 发表于 2019-12-22 08:36:29 | 显示全部楼层
太好了~谢谢共享种子~已经找很多地方都是找一些没源的种子~希望这有速度快点~
回复 支持 反对

使用道具 举报

wl_000 发表于 2019-11-19 21:53:11 | 显示全部楼层

评分看来还可以
回复 支持 反对

使用道具 举报

好热的冬天 发表于 2019-11-8 21:52:44 | 显示全部楼层
没看过试试看下怎么样?谢谢分享
回复 支持 反对

使用道具 举报

Hwi 发表于 2019-10-20 23:48:43 | 显示全部楼层
感谢楼主分享!!!!
回复 支持 反对

使用道具 举报

mlgbdxl 发表于 2019-10-10 11:17:17 | 显示全部楼层
感谢楼主的分享,谢谢。
回复 支持 反对

使用道具 举报

gwt_25807 发表于 2019-10-10 09:21:06 | 显示全部楼层
夏福特4k Shaft.2019.INTERNAL.2160p.WEB.H265【19.88 GB】
这个链接购买后,打开没有提示下载种子。
回复 支持 反对

使用道具 举报

wy787425346 发表于 2019-10-9 00:59:04 | 显示全部楼层

请问必须要是7.1声道才能下载看吗?
回复 支持 反对

使用道具 举报

bonoc 发表于 2019-10-5 17:21:36 | 显示全部楼层

谢谢发帖,支持
回复 支持 反对

使用道具 举报

您需要登录后才可以回帖 登录 | 立即注册

本版积分规则

在线客服

在线客服

服务时间 9:00—18:00

返回顶部

关注微信公众号第一时间推送精彩

官方微信

手机访问

Hao4K影音

专注4k家庭影音,提供家庭影音社区,家庭影音器材库,影音问答平台,影音商城,服务千万家庭影音用户。

本站内容部分由用户自主分享和转载自互联网,转载目的在于传递更多信息,并不代表本网赞同其观点和对其真实性负责。

如有侵权、违反国家法律政策行为,请联系我们,我们会第一时间及时清除和处理!

举报反馈邮箱:admin@hao4k.cn

Copyright  2019-2020  Hao4K影音粤公网安备 44030302001429号    ( 粤ICP备18155646号-1 )|网站地图