专注4K家庭影音, 服务千万家庭影音发烧友!
手机版
访问手机版

在线
客服

Hao4K影音在线客服服务时间: 9:00-24:00

选择下列客服马上在线沟通:

快速
发帖

关注
微信

关注微信二维码
顶部

攻击链4k Kill.Chain.2019.2160p.AMZN.WEBRip.DDP5.1.x264电影

[复制链接]
影视vip 发表于 2019-10-21 20:47:29 | 显示全部楼层 |阅读模式 打印 上一主题 下一主题
电影频道
电影封面:
片  名: 攻击链4k
电影分类: 动作   
国  家: 美国   
年  代: 2019
分 辨 率: 4K(3840x2160)    
电影格式: MKV|REMUX   
画质标准: 其他 
音质编码: Dolby Digital Plus Audio    
电影声道: 5.1声道    
电影语言: 英文原版     
资源大小: 31.62 GB
导  演: 肯·桑泽尔
豆瓣评分: 0.0 分
中文字幕: /thread-39881-1-1.html
剧情简介: 尼古拉斯·凯奇或将出演全新影片[攻击链](Kill Chain,暂译),该片由肯·桑泽尔([替身杀手])自编自导。故事讲述三个陌生人,他们彼此将陷入前所未有的冲突中。该片在戛纳电影节上被形容为最棒的黑色侦探影片。千禧年影业负责制作。
 
攻击链4k Kill.Chain.2019.2160p.AMZN.WEBRip.DDP5.1.x264电影信息
; j" j* \. D" E
  1. Video& ]* O' u8 u- j7 P/ p
  2. ID : 1
    1 e! m: u+ J- Z, \. ^; A
  3. Format : AVC
    " h: A* |% i: R& {$ ^- T
  4. Format/Info : Advanced Video Codec
    9 i1 J, ?9 g/ c0 S$ f( s
  5. Format profile : High@L5.13 i+ }% i- Z8 X! N+ u
  6. Format settings : CABAC / 5 Ref Frames
    ! {5 P9 C5 `  M! A' \
  7. Format settings, CABAC : Yes5 b+ |) a& S0 x4 l
  8. Format settings, Reference frames : 5 frames2 S% Y; ]) c" E6 n
  9. Codec ID : V_MPEG4/ISO/AVC2 X' W/ g3 `2 P9 Y
  10. Duration : 1 h 31 min
    " }$ M8 J! k2 [# _7 m
  11. Bit rate : 48.9 Mb/s! F# C9 s  Z% M7 E/ a9 o5 b
  12. Width : 3 840 pixels  g: c1 P4 o2 O5 s" G1 A% M
  13. Height : 2 080 pixels4 {# }. P7 P% V, Y" U/ l! c
  14. Display aspect ratio : 1.85:1
    1 `; n; t6 L6 Y: {
  15. Frame rate mode : Constant
    / O) g( Y' W  _& F' Q
  16. Frame rate : 23.976 (24000/1001) FPS6 x  \: R1 t  Y  _& g) ]$ ?7 G$ }
  17. Color space : YUV! p9 a% g4 y8 p  u3 j
  18. Chroma subsampling : 4:2:01 P8 \3 H) U$ v  w
  19. Bit depth : 8 bits
    % @- z3 a! V9 K0 U
  20. Scan type : Progressive
    4 N+ X0 E! Z+ {4 o
  21. Bits/(Pixel*Frame) : 0.256* ?0 r; ?; z! }1 n4 ~) ]9 l$ M
  22. Stream size : 31.2 GiB (99%)
    3 N+ k+ ~6 @% T9 O$ S8 z
  23. Writing library : x264 core 158 r2984 3759fcb
    ) ?7 U0 l7 `7 d! J# a
  24. Encoding settings : cabac=1 / ref=5 / deblock=1:-3:-3 / analyse=0x3:0x133 / me=umh / subme=10 / psy=1 / psy_rd=1.00:0.00 / mixed_ref=1 / me_range=48 / chroma_me=1 / trellis=2 / 8x8dct=1 / cqm=0 / deadzone=21,11 / fast_pskip=0 / chroma_qp_offset=-2 / threads=24 / lookahead_threads=4 / sliced_threads=0 / nr=0 / decimate=0 / interlaced=0 / bluray_compat=0 / constrained_intra=0 / bframes=8 / b_pyramid=2 / b_adapt=2 / b_bias=0 / direct=3 / weightb=1 / open_gop=0 / weightp=2 / keyint=250 / keyint_min=23 / scenecut=40 / intra_refresh=0 / rc=crf / mbtree=0 / crf=17.0 / qcomp=0.60 / qpmin=0 / qpmax=69 / qpstep=4 / ip_ratio=1.30 / pb_ratio=1.20 / aq=3:0.80
    0 s/ N6 T& y* b: k6 q1 c: A: k
  25. Default : Yes( s- |- [0 E$ b% A/ u
  26. Forced : No0 J3 x# r- W' S7 L4 Z
  27. : Q: J/ m4 K$ x8 z, P# P
  28. Audio7 Y( R- i! a9 G5 F7 W, G
  29. ID : 2
    2 U; Z) Z9 ~, m9 g& c
  30. Format : E-AC-3
    9 I+ z2 F$ q% z0 |
  31. Format/Info : Enhanced AC-30 y, b2 c4 T7 _
  32. Commercial name : Dolby Digital Plus" h  S* d0 Y5 S* m; j! f: T
  33. Codec ID : A_EAC30 R0 b: K. O' _! `9 t/ Y* h4 s
  34. Duration : 1 h 31 min
    8 @# B( m6 @; f$ g
  35. Bit rate mode : Constant+ R, X2 L. X% f) H( t+ v" N$ {' j( u
  36. Bit rate : 640 kb/s
    & c7 ~' d$ @. F0 W
  37. Channel(s) : 6 channels" W7 m; X, l7 r8 R7 h! o1 u. l
  38. Channel layout : L R C LFE Ls Rs- f1 Q3 }6 Z# ?6 a  b9 r
  39. Sampling rate : 48.0 kHz
    " i; A' q* Z! l6 Q
  40. Frame rate : 31.250 FPS (1536 SPF)$ ]7 q$ X& C  Y8 Y5 Q' _" s2 T
  41. Compression mode : Lossy
    1 V8 L; P9 t. C# j! ?
  42. Stream size : 418 MiB (1%)- A( ~! L, ~; K* |
  43. Language : English+ k% X: g2 u; M/ X6 L7 K* H
  44. Service kind : Complete Main
    5 Y% d5 ~' B% M2 e2 W) u, b, A
  45. Default : Yes
    8 S% |7 b, s* `2 r
  46. Forced : No8 F! l8 Q1 c8 z/ Y$ [

  47. 6 m, V1 c1 X$ x
  48. Text #1# q- o: M( c5 ~* C5 Z* ]' x, L
  49. ID : 3
    & ]8 H, b- ^+ y7 u( n$ \
  50. Format : UTF-8
    ; x0 \0 F" g7 c8 _5 O9 l& y
  51. Codec ID : S_TEXT/UTF8: I9 N6 b# _: X: x2 Z  d8 }
  52. Codec ID/Info : UTF-8 Plain Text6 C; f9 Q7 R& K$ r2 q
  53. Duration : 1 h 22 min  K1 }3 {3 B- ~  ~) i) v* m
  54. Bit rate : 43 b/s
    . ], k# j& F$ i1 ?
  55. Count of elements : 899/ f, n6 E3 b! g5 m
  56. Stream size : 26.3 KiB (0%)
    - D+ E; q" w/ ?/ G% g; K' g! D. j
  57. Language : English
    2 x! o) G: {9 i5 T6 X
  58. Default : No/ f$ u, Z3 X! w, Z3 h2 b9 z+ [, T
  59. Forced : No
    % S% Y/ |% \3 A$ o: t

  60. ) {3 K( k+ \7 a8 `+ d) ]
  61. Text #2" F. T  [' p5 @- ?
  62. ID : 43 A. `7 ?2 p* n2 X
  63. Format : UTF-8" G+ S5 A0 N4 t
  64. Codec ID : S_TEXT/UTF8
    ' S) E9 _* ]! P
  65. Codec ID/Info : UTF-8 Plain Text
    7 v. s  h7 J# d  j5 ?$ p
  66. Duration : 1 h 26 min) h7 F2 V% {  @# H- E7 q8 u
  67. Bit rate : 43 b/s
    $ Z+ N# @2 M/ j" s
  68. Count of elements : 983
    . f% A' k$ C2 G+ h' m, l( h: z7 V) |
  69. Stream size : 27.4 KiB (0%)1 V4 d$ r% v4 _+ M. D9 V
  70. Title : SDH
    $ a" F6 a0 m4 G  Q* O
  71. Language : English
    . Y! }' O$ Q; p2 V
  72. Default : No
    & y# n0 D4 |% N" ^1 g
  73. Forced : No
    # P$ S3 I8 a2 ]/ }
  74. 5 Y' }" e1 M  x3 X4 [
  75. Menu
    9 j3 S, I1 m5 J* J
  76. 00:00:00.000 : en:Studio Logo+ |1 S3 c* q& v. C
  77. 00:00:38.000 : en:Unexpected visitors come to the hotel8 x5 R# b5 M3 j+ U- k" d7 ~$ m
  78. 00:06:02.000 : en:Opening Credits' p6 k' `% |! ^- C8 g
  79. 00:07:47.000 : en:Another day at the office  V) _" `" y5 n+ w' E: H# }
  80. 00:11:13.000 : en:A suspicious sniper7 ~2 c9 S* z2 S/ E! f
  81. 00:20:28.000 : en:A change in the plan
    0 J, a6 o* x( e2 E
  82. 00:27:40.000 : en:Playing mind games) S% N, A# i, e6 ^  k9 `
  83. 00:36:46.000 : en:A desperate plan for escape
    9 D' ~" D! c* k/ u! X
  84. 00:42:06.000 : en:Time to steal a ride
    1 P, r1 [( O7 U
  85. 00:45:44.000 : en:Checking in at the Hotel Franco  V( K& `8 V" {" t! t* k
  86. 00:52:09.000 : en:Tough negotiations
    - Q4 n9 L$ h- X0 i; W
  87. 00:59:59.000 : en:Choosing a side. U- v+ b$ ?0 U7 v- G( C* r# I
  88. 01:06:36.000 : en:Time for a story
    4 ~! B# \5 _6 [; z% ]
  89. 01:16:00.000 : en:The hotel becomes a war zone* R6 e  B; x9 k6 A) |8 A7 c
  90. 01:22:42.000 : en:Tying up loose ends; a3 F# Y1 K- p2 w7 m# {& o4 ~
  91. 01:27:46.000 : en:End Credits
复制代码
攻击链4k Kill.Chain.2019.2160p.AMZN.WEBRip.DDP5.1.x264电影下载; e, b" G5 d( Q2 v% R4 i8 V7 B
攻击链4k Kill.Chain.2019.2160p.AMZN.WEBRip.DDP5.1.x264【31.62 GB】
5 g5 B/ v7 p& ?( o 攻击链4k Kill.Chain.2019.2160p.AMZN.WEBRip.DDP5.1.x264-AJP69.torrent
(附件大小: 79.59 KB  )
参与人数 2贡献值 +2 K币 +1 收起 理由
XLYONE + 1 + 1 非常感谢!
shencen0909 + 1 谢谢分享!

查看全部评分总评分 : 贡献值 +2 K币 +1

回复

使用道具 举报

 

精彩评论41

倒序浏览
辣椒牛肉饭 发表于 昨天 23:57 | 显示全部楼层
 
不知道这次能不能靠谱点
回复 支持 反对

使用道具 举报

 
大树717 发表于 2019-11-7 09:15:47 | 显示全部楼层
 
确定是烂片?不敢下了。。
回复 支持 反对

使用道具 举报

 
argp 发表于 2019-10-30 13:12:15 | 显示全部楼层
 
先顶后看         
回复 支持 反对

使用道具 举报

 
ajajaj77 发表于 2019-10-29 08:45:33 | 显示全部楼层
 
这种烂片,浪费硬盘。
回复 支持 反对

使用道具 举报

 
freewindfree 发表于 2019-10-27 13:53:13 来自手机 | 显示全部楼层
 
被以前的片子吓到了,不会又烂了吧
回复 支持 反对

使用道具 举报

 
流淌 发表于 2019-10-26 23:49:21 来自手机 | 显示全部楼层
 
感谢分享,要慢慢品尝
回复 支持 反对

使用道具 举报

 
shuergao 发表于 2019-10-25 21:13:48 | 显示全部楼层
 
感谢楼主分享
回复 支持 反对

使用道具 举报

 
狂风中的狙击手 发表于 2019-10-25 07:47:45 来自手机 | 显示全部楼层
 
感谢楼主分享!!!!!!
回复 支持 反对

使用道具 举报

 
scsxsh 发表于 2019-10-24 15:24:34 | 显示全部楼层
 
感谢楼主分享
回复 支持 反对

使用道具 举报

 
yxp18 发表于 2019-10-24 14:18:46 | 显示全部楼层
 
好电影,谢谢分享
回复 支持 反对

使用道具 举报

 
默默相无语 发表于 2019-10-24 00:33:01 | 显示全部楼层
 
感谢楼主分享~!
回复 支持 反对

使用道具 举报

 
过雪留痕 发表于 2019-10-23 14:29:31 | 显示全部楼层
 
感谢分享,下来看看。。
回复 支持 反对

使用道具 举报

 
渔歌子 发表于 2019-10-23 14:12:47 | 显示全部楼层
 
感谢楼主分享
回复 支持 反对

使用道具 举报

 
ZJZ010 发表于 2019-10-23 11:55:09 | 显示全部楼层
 
感谢楼主分享
回复 支持 反对

使用道具 举报

 
王小波 发表于 2019-10-23 09:40:47 | 显示全部楼层
 
尼古拉斯·凯奇现在全是拍摄烂片,没有一部好看的,我现在一般不下他的片子了。
回复 支持 反对

使用道具 举报

 
欢山9 发表于 2019-10-23 07:23:57 | 显示全部楼层
 
感谢分享tdfu65eru65
回复 支持 反对

使用道具 举报

 
concord3303 发表于 2019-10-23 05:39:02 | 显示全部楼层
 

! h% c% q- k( U* x- B$ M, H# I感谢楼主分享
回复 支持 反对

使用道具 举报

 
您需要登录后才可以回帖 登录 | 立即注册

本版积分规则


0关注

3粉丝

2帖子

排行榜
作者专栏

关注微信公众号第一时间推送精彩

官方微信

手机访问

Hao4K影音

专注4k庭影音,提供家庭影音社区、家庭影音器材库、影音问答平台、影音商城服务家庭影音用户。

本站内容部分由用户自主分享和转载自互联网,转载目的在于传递更多信息,并不代表本网赞同其观点和对其真实性负责。

如有侵权、违反国家法律政策行为,请联系我们,我们会第一时间及时清除和处理!

举报反馈邮箱:admin@hao4k.cn

Copyright   ©2016-2019  Hao4K影音Powered by©Hao4K 粤公网安备 44030302001429号   粤ICP备18155646号-1 |网站地图