专注4K家庭影音, 服务千万家庭影音发烧友!

在线
客服

QQ咨询服务时间: 9:00-21:00

选择下列客服马上在线沟通:

快速
发帖

暂无
7*24小时客服服务热线

关注
微信

顶部

福禄双霸天4k.The.Blues.Brothers.1980.2in1.UHD.Blu-ray.2160p.HEVC.DTS-X.MA.7.1.加长版电影下载[第768部破解蓝光原盘]

老顽童 发表于 2020-5-20 23:07:24 | 显示全部楼层
电影频道
电影封面:
片  名: 福禄双霸天4k
电影分类: 动作   犯罪   喜剧   
国  家: 美国   
年  代: 80年代    
分 辨 率: 4K(3840x2160)    
电影格式: MKV|REMUX   
画质标准: HDR10 
音质编码: DTS:X    DTS Audio     
电影声道: 7.1声道    5.1声道    
电影语言: 中文简体     中文繁体     英文原版     
资源大小: 88.40 GB
导  演: 约翰·兰迪斯
豆瓣评分: 8.3 分
中文字幕: -
剧情简介: 这是一部充满音乐表演的无厘头喜剧。杰克(约翰·贝鲁西 John Belushi 饰)和艾伍德(丹·艾克罗伊德 Dan Aykroyd 饰)曾经是音乐狂人,组乐队搞演出是他们的拿手好戏。杰克却因为一桩抢劫案而坐了牢,从此荒废了音乐事业。出狱那天,艾伍德前来接风,二人兴致勃勃前往自幼长大的孤儿院探望玛丽修女,却被告知这个孤儿院已经欠了一大笔税款面临关门,除非有人能在十一天内凑齐5000美元。
  二人对孤儿院情比金坚,怎能眼睁睁看着孤儿院“沦陷”?哥俩从长计议,决定重拾自己的音乐事业,为孤儿院巡演揍钱。于是,以前的乐队又重新组合起来,热热闹闹的一大队人在舞台上开始了磕磕绊绊的演出。凑钱还是其次的问题,他们得先解决意外碰到的一大堆麻烦事,比如警察的误会、黑帮的追杀……挽救孤儿院的动力让他们所向披靡,魅力四射,同时也找回了他们自己的音乐梦想。
鬼马兄弟(港) / 蓝调兄弟/福禄双霸天4k.The.Blues.Brothers.1980.2in1.UHD.Blu-ray.2160p.HEVC.DTS-X.MA.7.1.加长版电影信息
第768部破解4K UHD蓝光原盘电影,包含完整的BDMV文件夹及数据,AACS 2.0协议已被完整破解
  1. DISC INFO:

  2. Disc Title:     The Blues Brothers
  3. Disc Label:    The.Blues.Brothers.1980.2in1.UHD.Blu-ray.2160p.HEVC.DTS-X.MA.7.1.Hao4k
  4. Disc Size:      95,219,068,278 bytes
  5. Protection:     AACS2
  6. Extras:         Ultra HD, BD-Java
  7. BDInfo:         0.7.5.5

  8. PLAYLIST REPORT:

  9. Name:                   00801.MPLS
  10. Length:                 2:27:44.605 (h:m:s.ms)
  11. Size:                   53,209,742,208 bytes
  12. Total Bitrate:          48.02 Mbps

  13. (*) Indicates included stream hidden by this playlist.

  14. VIDEO:

  15. Codec                   Bitrate             Description     
  16. -----                   -------             -----------     
  17. MPEG-H HEVC Video       37955 kbps          2160p / 23.976 fps / 16:9 / Main 10 @ Level 5.1 @ High / 10 bits / HDR10 / BT.2020

  18. AUDIO:

  19. Codec                           Language        Bitrate         Description     
  20. -----                           --------        -------         -----------     
  21. DTS:X Master Audio              English         6540 kbps       7.1 / 48 kHz /  6540 kbps / 24-bit (DTS Core: 5.1 / 48 kHz /  1509 kbps / 24-bit)
  22. * DTS Audio                     French          768 kbps        5.1 / 48 kHz /   768 kbps / 24-bit

  23. SUBTITLES:

  24. Codec                           Language        Bitrate         Description     
  25. -----                           --------        -------         -----------     
  26. Presentation Graphics           English         32.946 kbps                     
  27. Presentation Graphics           French          22.471 kbps                     
  28. Presentation Graphics           Spanish         26.593 kbps                     
  29. Presentation Graphics           Danish          25.815 kbps                     
  30. Presentation Graphics           Finnish         26.152 kbps                     
  31. Presentation Graphics           Norwegian       24.058 kbps                     
  32. Presentation Graphics           Swedish         25.114 kbps                     
  33. Presentation Graphics           Hindi           23.168 kbps                     
  34. Presentation Graphics           Chinese         26.791 kbps   简体中文                     
  35. Presentation Graphics           Chinese         26.471 kbps   繁体中文                  
  36. Presentation Graphics           Chinese         52.655 kbps   简英双语                  
  37. Presentation Graphics           Chinese         52.315 kbps   繁英双语                 
  38. * Presentation Graphics         French          0.310 kbps                     

  39. FILES:

  40. Name            Time In         Length          Size            Total Bitrate   
  41. ----            -------         ------          ----            -------------   
  42. 00156.M2TS      0:00:00.000     0:06:07.533     2,129,150,208   46,334         
  43. 00132.M2TS      0:06:07.533     0:06:20.588     2,322,961,920   48,818         
  44. 00286.M2TS      0:12:28.122     0:16:27.861     5,973,369,216   48,370         
  45. 00134.M2TS      0:28:55.984     0:02:54.090     1,039,103,232   47,727         
  46. 00287.M2TS      0:31:50.074     0:17:37.556     6,205,804,416   46,941         
  47. 00136.M2TS      0:49:27.631     0:05:29.829     1,929,620,544   46,791         
  48. 00288.M2TS      0:54:57.460     0:06:03.279     2,186,824,704   48,146         
  49. 00138.M2TS      1:01:00.740     0:05:27.618     2,009,701,056   49,062         
  50. 00289.M2TS      1:06:28.359     0:00:59.559     347,505,216     46,611         
  51. 00140.M2TS      1:07:27.918     0:09:02.208     3,245,461,440   47,878         
  52. 00290.M2TS      1:16:30.127     0:08:58.246     3,281,142,912   48,760         
  53. 00142.M2TS      1:25:28.373     0:05:07.473     1,798,785,792   46,789         
  54. 00291.M2TS      1:30:35.846     0:02:09.045     780,725,952     48,369         
  55. 00144.M2TS      1:32:44.892     0:02:35.113     909,447,168     46,880         
  56. 00292.M2TS      1:35:20.005     0:01:37.180     567,092,736     46,644         
  57. 00146.M2TS      1:36:57.186     0:02:14.801     785,596,416     46,594         
  58. 00093.M2TS      1:39:11.987     0:18:47.626     6,952,681,536   49,322         
  59. 00148.M2TS      1:57:59.614     0:02:14.968     813,752,448     48,204         
  60. 00294.M2TS      2:00:14.582     0:05:27.869     1,949,952,960   47,567         
  61. 00150.M2TS      2:05:42.451     0:03:05.351     1,078,730,880   46,538         
  62. 00295.M2TS      2:08:47.803     0:03:01.014     1,071,089,664   47,315         
  63. 00152.M2TS      2:11:48.817     0:02:44.289     948,105,024     46,144         
  64. 00296.M2TS      2:14:33.106     0:01:25.168     494,152,704     46,371         
  65. 00154.M2TS      2:15:58.274     0:01:30.548     525,295,296     46,367         
  66. 00297.M2TS      2:17:28.823     0:10:15.781     3,863,688,768   50,189
复制代码

  1. DISC INFO:

  2. Disc Title:     The Blues Brothers
  3. Disc Label:   The.Blues.Brothers.1980.2in1.UHD.Blu-ray.2160p.HEVC.DTS-X.MA.7.1.Hao4K
  4. Disc Size:      95,219,068,278 bytes
  5. Protection:     AACS2
  6. Extras:         Ultra HD, BD-Java
  7. BDInfo:         0.7.5.5

  8. PLAYLIST REPORT:

  9. Name:                   00800.MPLS
  10. Length:                 2:12:48.335 (h:m:s.ms)
  11. Size:                   47,812,198,848 bytes
  12. Total Bitrate:          48.00 Mbps

  13. VIDEO:

  14. Codec                   Bitrate             Description     
  15. -----                   -------             -----------     
  16. MPEG-H HEVC Video       37955 kbps          2160p / 23.976 fps / 16:9 / Main 10 @ Level 5.1 @ High / 10 bits / HDR10 / BT.2020

  17. AUDIO:

  18. Codec                           Language        Bitrate         Description     
  19. -----                           --------        -------         -----------     
  20. DTS:X Master Audio              English         6507 kbps       7.1 / 48 kHz /  6507 kbps / 24-bit (DTS Core: 5.1 / 48 kHz /  1509 kbps / 24-bit)
  21. DTS Audio                       French          768 kbps        5.1 / 48 kHz /   768 kbps / 24-bit

  22. SUBTITLES:

  23. Codec                           Language        Bitrate         Description     
  24. -----                           --------        -------         -----------     
  25. Presentation Graphics           English         34.092 kbps
  26. Presentation Graphics           Chinese         27.746 kbps   简体中文                       
  27. Presentation Graphics           French          23.159 kbps                     
  28. Presentation Graphics           Spanish         27.837 kbps
  29. Presentation Graphics           Chinese         54.469 kbps   简英双语                     
  30. Presentation Graphics           Danish          26.791 kbps                     
  31. Presentation Graphics           Finnish         27.127 kbps                     
  32. Presentation Graphics           Norwegian       24.965 kbps                     
  33. Presentation Graphics           Swedish         26.092 kbps                     
  34. Presentation Graphics           Hindi           22.951 kbps                     
  35. Presentation Graphics           Chinese         27.415 kbps   繁体中文                  
  36. Presentation Graphics           French          0.729 kbps                     
  37. Presentation Graphics           Chinese         54.116 kbps   繁英双语

  38. FILES:

  39. Name            Time In         Length          Size            Total Bitrate   
  40. ----            -------         ------          ----            -------------   
  41. 00131.M2TS      0:00:00.000     0:05:29.370     1,911,290,112   46,411         
  42. 00132.M2TS      0:05:29.370     0:06:20.588     2,322,961,920   48,818         
  43. 00133.M2TS      0:11:49.959     0:14:43.090     5,330,198,784   48,282         
  44. 00134.M2TS      0:26:33.049     0:02:54.090     1,039,103,232   47,727         
  45. 00135.M2TS      0:29:27.140     0:12:39.091     4,447,336,128   46,865         
  46. 00136.M2TS      0:42:06.232     0:05:29.829     1,929,620,544   46,791         
  47. 00137.M2TS      0:47:36.061     0:04:12.585     1,504,688,448   47,641         
  48. 00138.M2TS      0:51:48.647     0:05:27.618     2,009,701,056   49,062         
  49. 00139.M2TS      0:57:16.266     0:01:02.062     361,414,848     46,525         
  50. 00140.M2TS      0:58:18.328     0:09:02.208     3,245,461,440   47,878         
  51. 00141.M2TS      1:07:20.536     0:08:09.530     2,987,012,160   48,806         
  52. 00142.M2TS      1:15:30.067     0:05:07.473     1,798,785,792   46,789         
  53. 00143.M2TS      1:20:37.540     0:01:55.740     697,409,856     48,170         
  54. 00144.M2TS      1:22:33.281     0:02:35.113     909,447,168     46,880         
  55. 00145.M2TS      1:25:08.394     0:01:27.337     509,655,744     46,639         
  56. 00146.M2TS      1:26:35.732     0:02:14.801     785,596,416     46,594         
  57. 00094.M2TS      1:28:50.533     0:15:26.216     5,720,882,112   49,408         
  58. 00148.M2TS      1:44:16.750     0:02:14.968     813,752,448     48,204         
  59. 00149.M2TS      1:46:31.718     0:05:00.508     1,787,622,144   47,576         
  60. 00150.M2TS      1:51:32.227     0:03:05.351     1,078,730,880   46,538         
  61. 00151.M2TS      1:54:37.578     0:02:54.007     1,029,806,976   47,323         
  62. 00152.M2TS      1:57:31.586     0:02:44.289     948,105,024     46,144         
  63. 00153.M2TS      2:00:15.875     0:01:20.955     471,504,768     46,546         
  64. 00154.M2TS      2:01:36.831     0:01:30.548     525,295,296     46,367         
  65. 00155.M2TS      2:03:07.379     0:09:40.955     3,646,815,552   50,211
复制代码

鬼马兄弟(港) / 蓝调兄弟/福禄双霸天4k The.Blues.Brothers.1980.UHD.BluRay.2160p.HEVC.DTS.X.MA.7.1.Atmos电影下载
福禄双霸天4k.The.Blues.Brothers.1980.2in1.UHD.Blu-ray.2160p.HEVC.DTS-X.MA.7.1.加长版[DIY中简繁+英简繁]@Hao4K【4K UHD蓝光原盘BDISO 2160p 88.40 GB】
The Blues Brothers 1980 2in1 UHD Blu-ray 2160p HEVC DTS-X MA 7.1@Hao4K.torrent
(539.77 KB, 售价: 20 K币)
回复

使用道具 举报

 

精彩评论53

倒序浏览
老顽童 发表于 7 天前 | 显示全部楼层
由于电脑缘故,DIY版本情况如下:①头两次做种一直无法贡献上传流量,导致下载到15.6%后无法下载。
②第三次做种前没有效验资源,导致下载后无法播放。
种子已于2020年5月28日重新做种!
请在2020年5月28日11点40分前下载的用户,重新下载该种子。已经下载过的不会再次扣K币。
回复 支持 1 反对 0

使用道具 举报

 
 楼主| ccllvye 发表于 昨天 16:01 | 显示全部楼层
先锋500不能播放:福禄双霸天4k.The.Blues.Brothers.1980.2in1.UHD.Blu-ray.2160p.HEVC.DTS-X.MA.7.1.加长版[DIY中简繁+英简繁]@Hao4K【4K UHD蓝光原盘BDISO 2160p 88.40 GB】
回复 支持 反对

使用道具 举报

 
xiuyanzhang 发表于 昨天 12:55 | 显示全部楼层
下了几天一直在15.6%,准备留言看来已经解决!
回复 支持 反对

使用道具 举报

 
liwil 发表于 前天 11:07 | 显示全部楼层
第四次的[DIY中简繁+英简繁]是不是又有問題了
回复 支持 反对

使用道具 举报

 
millier 发表于 前天 09:49 | 显示全部楼层
老顽童 发表于 2020-5-25 18:57
由于电脑缘故,DIY版本情况如下:①头两次做种一直无法贡献上传流量,导致下载到15.6%后无法下载。
②第三 ...

辛苦了,谢谢分享!
回复 支持 反对

使用道具 举报

 
panbell 发表于 3 天前 | 显示全部楼层
谢谢楼主分享
回复 支持 反对

使用道具 举报

 
ARGO88 发表于 3 天前 | 显示全部楼层
老顽童 发表于 2020-5-25 18:57
由于电脑缘故,DIY版本情况如下:①头两次做种一直无法贡献上传流量,导致下载到15.6%后无法下载。
②第三 ...

真的非常谢谢!谢谢你!谢谢HAO4K!DIY不容易,做种不容易。
回复 支持 反对

使用道具 举报

 
kunmtt 发表于 4 天前 | 显示全部楼层
下不了,退K币吧
回复 支持 反对

使用道具 举报

 
新手未入门 发表于 4 天前 | 显示全部楼层
DIY字幕那个版本播放不了,K币可以退不?
回复 支持 反对

使用道具 举报

 
 
ARGO88 发表于 4 天前 | 显示全部楼层
OPPO UDP-203不能播放:,福禄双霸天4k.The.Blues.Brothers.1980.2in1.UHD.Blu-ray.2160p.HEVC.DTS-X.MA.7.1.加长版[DIY中简繁+英简繁]@Hao4K【4K UHD蓝光原盘BDISO 2160p 88.40 GB】
回复 支持 反对

使用道具 举报

 
phskytom 发表于 5 天前 | 显示全部楼层

感谢楼主分享!
回复 支持 反对

使用道具 举报

 
岡坂日川 发表于 5 天前 | 显示全部楼层
2020年5月25日19点的版本我下载完了,结果是playlist里面的所有播放列表全部是空白的,stream里的m2ts文件全部播放不了。
回复 支持 反对

使用道具 举报

 
天美工作室CEO 发表于 5 天前 | 显示全部楼层
福禄双霸天4k。 The.Blues.Brothers.1980.2in1.UHD.Blu-ray.2160p.HEVC.DTS-X.MA.7.1。加长版[DIY中简繁+英
这个文件有问题
回复 支持 反对

使用道具 举报

 
liwil 发表于 5 天前 | 显示全部楼层
老顽童 发表于 2020-5-25 18:57
由于电脑缘故,DIY版本头两次做种一直无法贡献上传流量,请在2020年5月25日19点前下载的用户重新下载该种子 ...

第三版的DIY簡繁字幕原盘在 OPPO UDP-203, PowerDVD, Potplay, KODI 所有都不能播
回复 支持 反对

使用道具 举报

 
 
54580388 发表于 6 天前 | 显示全部楼层
reumx版本,没有字幕啊,字幕库也找不到,谁能分享个字幕
回复 支持 反对

使用道具 举报

 
wsgfaaaa 发表于 6 天前 | 显示全部楼层
millier 发表于 2020-5-26 11:42
亲们,有没有不能播放的!

我在电脑和播放机上都不能播放

不能播放
回复 支持 反对

使用道具 举报

 
wsgfaaaa 发表于 6 天前 | 显示全部楼层
不能播放啊
回复 支持 反对

使用道具 举报

 
您需要登录后才可以回帖 登录 | 立即注册

本版积分规则


0关注

21粉丝

23帖子

排行榜
社区广告

关注微信公众号第一时间推送精彩

官方微信

手机访问

Hao4K影音

专注4k家庭影音,提供家庭影音社区,家庭影音器材库,影音问答平台,影音商城,服务千万家庭影音用户。

本站内容部分由用户自主分享和转载自互联网,转载目的在于传递更多信息,并不代表本网赞同其观点和对其真实性负责。

如有侵权、违反国家法律政策行为,请联系我们,我们会第一时间及时清除和处理!

举报反馈邮箱:admin@hao4k.cn

Copyright   ©2019-2020  Hao4K影音粤公网安备 44030302001429号     ( 粤ICP备18155646号-1 )|网站地图