专注4K家庭影音, 服务千万家庭影音发烧友!

在线
客服

QQ咨询服务时间: 9:00-21:00

选择下列客服马上在线沟通:

快速
发帖

暂无
7*24小时客服服务热线

关注
微信

顶部

宝贝男孩4k Honey.Boy.2019.HDR.2160p.WEB.h265电影资源下载

 关闭
老顽童 发表于 2020-5-24 19:25:34 | 显示全部楼层
电影频道
电影封面:
片  名: 宝贝男孩4k
电影分类: 剧情 
国  家: 美国 
年  代: 2019年 年
分 辨 率: 4K(3840x2160)
电影格式: MKV|REMUX 
画质标准: HDR 
音质编码: 其他DD 
电影声道: 其他 
帧数/FPS: FPS
电影语言: 英文原版 
资源大小: 10.02 GB
导  演: 阿尔玛·哈勒
豆瓣评分: 7.1 分
中文字幕: /thread-47311-1-1.html
剧情简介:  12岁的Otis是一名在好莱坞冉冉升起的电视新星。当他的事业开始风生水起时,他曾扮过马戏小丑的父亲回到他身边,成为他的监护人。在片场之外的时间里,Otis与他的父亲一起住在一家位于城市边缘的汽车旅馆,忍受着傲慢霸道的父亲的虐待。《宝贝男孩》跟随着两条时间线,展现了一对父子之间充满争议的关系以及十年来两人试图修复心障的历程。
  这是编剧/主演Shia LaBeouf与导演Alma Har\'el的又一次令人惊叹的合作,描绘出了一幅痛苦却又给人以启迪的成长自画像。Shia LaBeouf的剧本深入潜进Otis的精神世界,挖掘出虐待给他留下的伤痕、令人不快的真相;而Alma贡献出了激动人心、个人风格强烈的导演技巧,同时也始终没有忘记影片温暖动人的内核。两位出色的年轻演员——Noah Jupe和Lucas Hedges——分别扮演两个不同年龄段的Otis,他们充满张力的表演塑造出了一个有力而质朴的角色,他的感情被愤怒和宽恕的渴望驱使着——这两种感情看似自相矛盾,却又真实共存。
宝贝男孩4k Honey.Boy.2019.HDR.2160p.WEB.h265电影信息
  1. Video
  2. ID : 1
  3. Format : HEVC
  4. Format/Info : High Efficiency Video Coding
  5. Format profile : Main 10@L5@Main
  6. HDR format : SMPTE ST 2094 App 4, Version 0
  7. Codec ID : V_MPEGH/ISO/HEVC
  8. Duration : 1 h 34 min
  9. Bit rate : 14.6 Mb/s
  10. Width : 3 840 pixels
  11. Height : 1 600 pixels
  12. Display aspect ratio : 2.40:1
  13. Frame rate mode : Constant
  14. Frame rate : 23.976 (24000/1001) FPS
  15. Standard : NTSC
  16. Color space : YUV
  17. Chroma subsampling : 4:2:0 (Type 2)
  18. Bit depth : 10 bits
  19. Bits/(Pixel*Frame) : 0.099
  20. Stream size : 9.59 GiB (96%)
  21. Default : Yes
  22. Forced : No
  23. Color range : Limited
  24. Color primaries : BT.2020
  25. Transfer characteristics : PQ
  26. Matrix coefficients : BT.2020 non-constant
  27. Mastering display color primaries : Display P3
  28. Mastering display luminance : min: 0.0001 cd/m2, max: 1000 cd/m2
  29. Maximum Content Light Level : 163 cd/m2
  30. Maximum Frame-Average Light Level : 771 cd/m2

  31. Audio
  32. ID : 2
  33. Format : E-AC-3
  34. Format/Info : Enhanced AC-3
  35. Commercial name : Dolby Digital Plus
  36. Codec ID : A_EAC3
  37. Duration : 1 h 34 min
  38. Bit rate mode : Constant
  39. Bit rate : 640 kb/s
  40. Channel(s) : 6 channels
  41. Channel layout : L R C LFE Ls Rs
  42. Sampling rate : 48.0 kHz
  43. Frame rate : 31.250 FPS (1536 SPF)
  44. Compression mode : Lossy
  45. Stream size : 431 MiB (4%)
  46. Title : English
  47. Language : English
  48. Service kind : Complete Main
  49. Default : Yes
  50. Forced : No

  51. Text
  52. ID : 3
  53. Format : UTF-8
  54. Codec ID : S_TEXT/UTF8
  55. Codec ID/Info : UTF-8 Plain Text
  56. Duration : 1 h 33 min
  57. Bit rate : 76 b/s
  58. Count of elements : 1734
  59. Stream size : 52.9 KiB (0%)
  60. Title : English [SDH]
  61. Language : English
  62. Default : No
  63. Forced : No

  64. Menu
  65. 00:00:00.000 : en:Studio Logos
  66. 00:00:44.000 : en:A day in the life of a stunt man
  67. 00:04:26.000 : en:Entering rehab
  68. 00:06:04.000 : en:Title Sequence
  69. 00:06:07.000 : en:Growing up in LA
  70. 00:10:22.000 : en:Father son bonding
  71. 00:20:23.000 : en:Adjusting to rehab
  72. 00:24:07.000 : en:Otis takes care of himself
  73. 00:30:29.000 : en:James meets Tom
  74. 00:36:25.000 : en:Pool therapy
  75. 00:39:48.000 : en:Life in recovery
  76. 00:50:30.000 : en:Different therapy techniques
  77. 00:58:43.000 : en:A dynamic power struggle
  78. 01:09:16.000 : en:Confronting trauma
  79. 01:15:20.000 : en:A fresh start
  80. 01:27:24.000 : en:End Credits
复制代码


宝贝男孩4k Honey.Boy.2019.HDR.2160p.WEB.h265电影下载
宝贝男孩4k Honey.Boy.2019.HDR.2160p.WEB.h265【10.02 GB】
宝贝男孩4k Honey.Boy.2019.HDR.2160p.WEB.h265-WATCHER.torrent
(50.75 KB, 售价: 3 K币)
回复

使用道具 举报

您需要登录后才可以回帖 登录 | 立即注册

本版积分规则


0关注

57粉丝

57帖子

热门主题
社区广告

关注微信公众号第一时间推送精彩

官方微信

手机访问

Hao4K影音

专注4k家庭影音,提供家庭影音社区,家庭影音器材库,影音问答平台,影音商城,服务千万家庭影音用户。

本站内容部分由用户自主分享和转载自互联网,转载目的在于传递更多信息,并不代表本网赞同其观点和对其真实性负责。

如有侵权、违反国家法律政策行为,请联系我们,我们会第一时间及时清除和处理!

举报反馈邮箱:admin@hao4k.cn

Copyright  2019-2020  Hao4K影音粤公网安备 44030302001429号     ( 粤ICP备18155646号-1 )|网站地图