专注4K家庭影音, 服务千万家庭影音发烧友!

火球:来自黑暗世界的访客4k Fireball.Visitors.From.Darker.Worlds.2020.2160p-纪录片下载

 
青衫烟雨 发表于 2020-11-15 10:45:19 | 显示全部楼层
电影频道
电影封面:
片  名: 火球:来自黑暗世界的访客4k
电影分类: 纪录片 
国  家: 美国 
年  代: 2020年
分 辨 率: 4K(3840x2160)
电影格式: MKV|REMUX 
画质标准: HDR10 
音质编码: Dolby Digital Plus Audio 
电影声道: 其他 
帧数/FPS: 23.976 FPS
电影语言: 英文原版 
资源大小: 16.39 GB
导  演: 沃纳·赫尔佐格 / Clive Oppenheimer
豆瓣评分: 7.0 分
中文字幕: -
剧情简介: 沃纳·赫尔佐格将再度联手地球学家克里夫·奥芬海默拍摄纪录片[火球](Fireball,暂译),聚焦陨星和彗星。奥芬海默曾现身2016年赫尔佐格自编自导的Netflix纪录片[进入地狱],此次二人将共执导筒。英国制片公司Spring Films与赫尔佐格的制片公司Werner Herzog Filmproduktion联合制作。
Fireball / 火球/火球:来自黑暗世界的访客4k  Fireball.Visitors.From.Darker.Worlds.2020.HDR.2160p.WEB.H265-4k纪录片信息
  1. Video
  2. ID : 1
  3. Format : HEVC
  4. Format/Info : High Efficiency Video Coding
  5. Format profile : Main 10@L5@High
  6. HDR format : SMPTE ST 2086, HDR10 compatible
  7. Codec ID : V_MPEGH/ISO/HEVC
  8. Duration : 1 h 37 min
  9. Bit rate : 23.0 Mb/s
  10. Width : 3 840 pixels
  11. Height : 2 160 pixels
  12. Display aspect ratio : 16:9
  13. Frame rate mode : Constant
  14. Frame rate : 23.976 (24000/1001) FPS
  15. Color space : YUV
  16. Chroma subsampling : 4:2:0 (Type 2)
  17. Bit depth : 10 bits
  18. Bits/(Pixel*Frame) : 0.116
  19. Stream size : 15.7 GiB (97%)
  20. Language : English
  21. Default : Yes
  22. Forced : No
  23. Color range : Limited
  24. Color primaries : BT.2020
  25. Transfer characteristics : PQ
  26. Matrix coefficients : BT.2020 non-constant
  27. Mastering display color primaries : Display P3
  28. Mastering display luminance : min: 0.0050 cd/m2, max: 1000 cd/m2
  29. Maximum Content Light Level : 2823 cd/m2
  30. Maximum Frame-Average Light Level : 743 cd/m2

  31. Audio
  32. ID : 2
  33. Format : E-AC-3 JOC
  34. Format/Info : Enhanced AC-3 with Joint Object Coding
  35. Commercial name : Dolby Digital Plus with Dolby Atmos
  36. Codec ID : A_EAC3
  37. Duration : 1 h 37 min
  38. Bit rate mode : Constant
  39. Bit rate : 768 kb/s
  40. Channel(s) : 6 channels
  41. Channel layout : L R C LFE Ls Rs
  42. Sampling rate : 48.0 kHz
  43. Frame rate : 31.250 FPS (1536 SPF)
  44. Compression mode : Lossy
  45. Stream size : 537 MiB (3%)
  46. Language : English
  47. Service kind : Complete Main
  48. Default : Yes
  49. Forced : No
  50. Complexity index : 16
  51. Number of dynamic objects : 15
  52. Bed channel count : 1 channel
  53. Bed channel configuration : LFE

  54. Text #1
  55. ID : 3
  56. Format : UTF-8
  57. Codec ID : S_TEXT/UTF8
  58. Codec ID/Info : UTF-8 Plain Text
  59. Duration : 1 min 27 s
  60. Bit rate : 76 b/s
  61. Count of elements : 19
  62. Stream size : 831 Bytes (0%)
  63. Title : Forced
  64. Language : English
  65. Default : Yes
  66. Forced : Yes

  67. Text #2
  68. ID : 4
  69. Format : UTF-8
  70. Codec ID : S_TEXT/UTF8
  71. Codec ID/Info : UTF-8 Plain Text
  72. Duration : 1 h 31 min
  73. Bit rate : 87 b/s
  74. Count of elements : 1234
  75. Stream size : 58.2 KiB (0%)
  76. Language : English
  77. Default : No
  78. Forced : No

  79. Text #3
  80. ID : 5
  81. Format : UTF-8
  82. Codec ID : S_TEXT/UTF8
  83. Codec ID/Info : UTF-8 Plain Text
  84. Duration : 1 h 33 min
  85. Bit rate : 89 b/s
  86. Count of elements : 1285
  87. Stream size : 60.9 KiB (0%)
  88. Title : English (SDH)
  89. Language : English
  90. Default : No
  91. Forced : No

  92. Text #4
  93. ID : 6
  94. Format : UTF-8
  95. Codec ID : S_TEXT/UTF8
  96. Codec ID/Info : UTF-8 Plain Text
  97. Duration : 1 h 36 min
  98. Bit rate : 109 b/s
  99. Count of elements : 1282
  100. Stream size : 77.5 KiB (0%)
  101. Language : Arabic
  102. Default : No
  103. Forced : No

  104. Text #5
  105. ID : 7
  106. Format : UTF-8
  107. Codec ID : S_TEXT/UTF8
  108. Codec ID/Info : UTF-8 Plain Text
  109. Duration : 1 h 36 min
  110. Bit rate : 130 b/s
  111. Count of elements : 1255
  112. Stream size : 92.1 KiB (0%)
  113. Language : Bulgarian
  114. Default : No
  115. Forced : No

  116. Text #6
  117. ID : 8
  118. Format : UTF-8
  119. Codec ID : S_TEXT/UTF8
  120. Codec ID/Info : UTF-8 Plain Text
  121. Duration : 1 h 36 min
  122. Bit rate : 74 b/s
  123. Count of elements : 1245
  124. Stream size : 53.1 KiB (0%)
  125. Language : Czech
  126. Default : No
  127. Forced : No

  128. Text #7
  129. ID : 9
  130. Format : UTF-8
  131. Codec ID : S_TEXT/UTF8
  132. Codec ID/Info : UTF-8 Plain Text
  133. Duration : 1 h 36 min
  134. Bit rate : 79 b/s
  135. Count of elements : 1134
  136. Stream size : 56.3 KiB (0%)
  137. Language : Danish
  138. Default : No
  139. Forced : No

  140. Text #8
  141. ID : 10
  142. Format : UTF-8
  143. Codec ID : S_TEXT/UTF8
  144. Codec ID/Info : UTF-8 Plain Text
  145. Duration : 1 h 36 min
  146. Bit rate : 73 b/s
  147. Count of elements : 1155
  148. Stream size : 51.7 KiB (0%)
  149. Language : Dutch
  150. Default : No
  151. Forced : No

  152. Text #9
  153. ID : 11
  154. Format : UTF-8
  155. Codec ID : S_TEXT/UTF8
  156. Codec ID/Info : UTF-8 Plain Text
  157. Duration : 1 h 36 min
  158. Bit rate : 74 b/s
  159. Count of elements : 1202
  160. Stream size : 52.6 KiB (0%)
  161. Language : Estonian
  162. Default : No
  163. Forced : No

  164. Text #10
  165. ID : 12
  166. Format : UTF-8
  167. Codec ID : S_TEXT/UTF8
  168. Codec ID/Info : UTF-8 Plain Text
  169. Duration : 1 h 36 min
  170. Bit rate : 75 b/s
  171. Count of elements : 1242
  172. Stream size : 53.6 KiB (0%)
  173. Language : Finnish
  174. Default : No
  175. Forced : No

  176. Text #11
  177. ID : 13
  178. Format : UTF-8
  179. Codec ID : S_TEXT/UTF8
  180. Codec ID/Info : UTF-8 Plain Text
  181. Duration : 1 h 36 min
  182. Bit rate : 82 b/s
  183. Count of elements : 1271
  184. Stream size : 58.6 KiB (0%)
  185. Title : French (Canada)
  186. Language : French
  187. Default : No
  188. Forced : No

  189. Text #12
  190. ID : 14
  191. Format : UTF-8
  192. Codec ID : S_TEXT/UTF8
  193. Codec ID/Info : UTF-8 Plain Text
  194. Duration : 1 h 36 min
  195. Bit rate : 82 b/s
  196. Count of elements : 1271
  197. Stream size : 58.6 KiB (0%)
  198. Title : French (France)
  199. Language : French
  200. Default : No
  201. Forced : No

  202. Text #13
  203. ID : 15
  204. Format : UTF-8
  205. Codec ID : S_TEXT/UTF8
  206. Codec ID/Info : UTF-8 Plain Text
  207. Duration : 1 h 36 min
  208. Bit rate : 80 b/s
  209. Count of elements : 1118
  210. Stream size : 57.1 KiB (0%)
  211. Language : German
  212. Default : No
  213. Forced : No

  214. Text #14
  215. ID : 16
  216. Format : UTF-8
  217. Codec ID : S_TEXT/UTF8
  218. Codec ID/Info : UTF-8 Plain Text
  219. Duration : 1 h 36 min
  220. Bit rate : 137 b/s
  221. Count of elements : 1277
  222. Stream size : 97.4 KiB (0%)
  223. Language : Greek
  224. Default : No
  225. Forced : No

  226. Text #15
  227. ID : 17
  228. Format : UTF-8
  229. Codec ID : S_TEXT/UTF8
  230. Codec ID/Info : UTF-8 Plain Text
  231. Duration : 1 h 36 min
  232. Bit rate : 107 b/s
  233. Count of elements : 1284
  234. Stream size : 76.0 KiB (0%)
  235. Language : Hebrew
  236. Default : No
  237. Forced : No

  238. Text #16
  239. ID : 18
  240. Format : UTF-8
  241. Codec ID : S_TEXT/UTF8
  242. Codec ID/Info : UTF-8 Plain Text
  243. Duration : 1 h 36 min
  244. Bit rate : 194 b/s
  245. Count of elements : 1285
  246. Stream size : 138 KiB (0%)
  247. Language : Hindi
  248. Default : No
  249. Forced : No

  250. Text #17
  251. ID : 19
  252. Format : UTF-8
  253. Codec ID : S_TEXT/UTF8
  254. Codec ID/Info : UTF-8 Plain Text
  255. Duration : 1 h 36 min
  256. Bit rate : 78 b/s
  257. Count of elements : 1264
  258. Stream size : 55.7 KiB (0%)
  259. Language : Hungarian
  260. Default : No
  261. Forced : No

  262. Text #18
  263. ID : 20
  264. Format : UTF-8
  265. Codec ID : S_TEXT/UTF8
  266. Codec ID/Info : UTF-8 Plain Text
  267. Duration : 1 h 36 min
  268. Bit rate : 81 b/s
  269. Count of elements : 1263
  270. Stream size : 57.5 KiB (0%)
  271. Language : Indonesian
  272. Default : No
  273. Forced : No

  274. Text #19
  275. ID : 21
  276. Format : UTF-8
  277. Codec ID : S_TEXT/UTF8
  278. Codec ID/Info : UTF-8 Plain Text
  279. Duration : 1 h 36 min
  280. Bit rate : 80 b/s
  281. Count of elements : 1270
  282. Stream size : 57.3 KiB (0%)
  283. Language : Italian
  284. Default : No
  285. Forced : No

  286. Text #20
  287. ID : 22
  288. Format : UTF-8
  289. Codec ID : S_TEXT/UTF8
  290. Codec ID/Info : UTF-8 Plain Text
  291. Duration : 1 h 36 min
  292. Bit rate : 71 b/s
  293. Count of elements : 1079
  294. Stream size : 50.8 KiB (0%)
  295. Language : Japanese
  296. Default : No
  297. Forced : No

  298. Text #21
  299. ID : 23
  300. Format : UTF-8
  301. Codec ID : S_TEXT/UTF8
  302. Codec ID/Info : UTF-8 Plain Text
  303. Duration : 1 h 36 min
  304. Bit rate : 81 b/s
  305. Count of elements : 1286
  306. Stream size : 57.7 KiB (0%)
  307. Language : Korean
  308. Default : No
  309. Forced : No

  310. Text #22
  311. ID : 24
  312. Format : UTF-8
  313. Codec ID : S_TEXT/UTF8
  314. Codec ID/Info : UTF-8 Plain Text
  315. Duration : 1 h 36 min
  316. Bit rate : 83 b/s
  317. Count of elements : 1278
  318. Stream size : 58.9 KiB (0%)
  319. Language : Latvian
  320. Default : No
  321. Forced : No

  322. Text #23
  323. ID : 25
  324. Format : UTF-8
  325. Codec ID : S_TEXT/UTF8
  326. Codec ID/Info : UTF-8 Plain Text
  327. Duration : 1 h 36 min
  328. Bit rate : 79 b/s
  329. Count of elements : 1283
  330. Stream size : 56.3 KiB (0%)
  331. Language : Lithuanian
  332. Default : No
  333. Forced : No

  334. Text #24
  335. ID : 26
  336. Format : UTF-8
  337. Codec ID : S_TEXT/UTF8
  338. Codec ID/Info : UTF-8 Plain Text
  339. Duration : 1 h 36 min
  340. Bit rate : 79 b/s
  341. Count of elements : 1270
  342. Stream size : 56.1 KiB (0%)
  343. Language : Malay
  344. Default : No
  345. Forced : No

  346. Text #25
  347. ID : 27
  348. Format : UTF-8
  349. Codec ID : S_TEXT/UTF8
  350. Codec ID/Info : UTF-8 Plain Text
  351. Duration : 1 h 36 min
  352. Bit rate : 78 b/s
  353. Count of elements : 1120
  354. Stream size : 55.8 KiB (0%)
  355. Language : Norwegian
  356. Default : No
  357. Forced : No

  358. Text #26
  359. ID : 28
  360. Format : UTF-8
  361. Codec ID : S_TEXT/UTF8
  362. Codec ID/Info : UTF-8 Plain Text
  363. Duration : 1 h 36 min
  364. Bit rate : 78 b/s
  365. Count of elements : 1232
  366. Stream size : 55.4 KiB (0%)
  367. Language : Polish
  368. Default : No
  369. Forced : No

  370. Text #27
  371. ID : 29
  372. Format : UTF-8
  373. Codec ID : S_TEXT/UTF8
  374. Codec ID/Info : UTF-8 Plain Text
  375. Duration : 1 h 36 min
  376. Bit rate : 81 b/s
  377. Count of elements : 1267
  378. Stream size : 57.7 KiB (0%)
  379. Language : Portuguese
  380. Default : No
  381. Forced : No

  382. Text #28
  383. ID : 30
  384. Format : UTF-8
  385. Codec ID : S_TEXT/UTF8
  386. Codec ID/Info : UTF-8 Plain Text
  387. Duration : 1 h 36 min
  388. Bit rate : 77 b/s
  389. Count of elements : 1275
  390. Stream size : 55.2 KiB (0%)
  391. Title : Portuguese (Brazil)
  392. Language : Breton
  393. Default : No
  394. Forced : No

  395. Text #29
  396. ID : 31
  397. Format : UTF-8
  398. Codec ID : S_TEXT/UTF8
  399. Codec ID/Info : UTF-8 Plain Text
  400. Duration : 1 h 36 min
  401. Bit rate : 126 b/s
  402. Count of elements : 1285
  403. Stream size : 89.6 KiB (0%)
  404. Language : Russian
  405. Default : No
  406. Forced : No

  407. Text #30
  408. ID : 32
  409. Format : UTF-8
  410. Codec ID : S_TEXT/UTF8
  411. Codec ID/Info : UTF-8 Plain Text
  412. Duration : 1 h 36 min
  413. Bit rate : 77 b/s
  414. Count of elements : 1277
  415. Stream size : 55.0 KiB (0%)
  416. Language : Slovak
  417. Default : No
  418. Forced : No

  419. Text #31
  420. ID : 33
  421. Format : UTF-8
  422. Codec ID : S_TEXT/UTF8
  423. Codec ID/Info : UTF-8 Plain Text
  424. Duration : 1 h 36 min
  425. Bit rate : 68 b/s
  426. Count of elements : 1265
  427. Stream size : 48.6 KiB (0%)
  428. Language : Slovenian
  429. Default : No
  430. Forced : No

  431. Text #32
  432. ID : 34
  433. Format : UTF-8
  434. Codec ID : S_TEXT/UTF8
  435. Codec ID/Info : UTF-8 Plain Text
  436. Duration : 1 h 36 min
  437. Bit rate : 76 b/s
  438. Count of elements : 1220
  439. Stream size : 54.6 KiB (0%)
  440. Title : Spanish (Latin America)
  441. Language : Spanish
  442. Default : No
  443. Forced : No

  444. Text #33
  445. ID : 35
  446. Format : UTF-8
  447. Codec ID : S_TEXT/UTF8
  448. Codec ID/Info : UTF-8 Plain Text
  449. Duration : 1 h 36 min
  450. Bit rate : 80 b/s
  451. Count of elements : 1238
  452. Stream size : 57.3 KiB (0%)
  453. Title : Spanish (Spain)
  454. Language : Spanish
  455. Default : No
  456. Forced : No

  457. Text #34
  458. ID : 36
  459. Format : UTF-8
  460. Codec ID : S_TEXT/UTF8
  461. Codec ID/Info : UTF-8 Plain Text
  462. Duration : 1 h 36 min
  463. Bit rate : 78 b/s
  464. Count of elements : 1267
  465. Stream size : 55.5 KiB (0%)
  466. Language : Swedish
  467. Default : No
  468. Forced : No

  469. Text #35
  470. ID : 37
  471. Format : UTF-8
  472. Codec ID : S_TEXT/UTF8
  473. Codec ID/Info : UTF-8 Plain Text
  474. Duration : 1 h 36 min
  475. Bit rate : 221 b/s
  476. Count of elements : 1284
  477. Stream size : 157 KiB (0%)
  478. Language : Tamil
  479. Default : No
  480. Forced : No

  481. Text #36
  482. ID : 38
  483. Format : UTF-8
  484. Codec ID : S_TEXT/UTF8
  485. Codec ID/Info : UTF-8 Plain Text
  486. Duration : 1 h 36 min
  487. Bit rate : 203 b/s
  488. Count of elements : 1284
  489. Stream size : 144 KiB (0%)
  490. Language : Telugu
  491. Default : No
  492. Forced : No

  493. Text #37
  494. ID : 39
  495. Format : UTF-8
  496. Codec ID : S_TEXT/UTF8
  497. Codec ID/Info : UTF-8 Plain Text
  498. Duration : 1 h 36 min
  499. Bit rate : 182 b/s
  500. Count of elements : 1284
  501. Stream size : 129 KiB (0%)
  502. Language : Thai
  503. Default : No
  504. Forced : No

  505. Text #38
  506. ID : 40
  507. Format : UTF-8
  508. Codec ID : S_TEXT/UTF8
  509. Codec ID/Info : UTF-8 Plain Text
  510. Duration : 1 h 36 min
  511. Bit rate : 82 b/s
  512. Count of elements : 1276
  513. Stream size : 58.4 KiB (0%)
  514. Language : Turkish
  515. Default : No
  516. Forced : No

  517. Text #39
  518. ID : 41
  519. Format : UTF-8
  520. Codec ID : S_TEXT/UTF8
  521. Codec ID/Info : UTF-8 Plain Text
  522. Duration : 1 h 36 min
  523. Bit rate : 124 b/s
  524. Count of elements : 1285
  525. Stream size : 88.0 KiB (0%)
  526. Language : Ukrainian
  527. Default : No
  528. Forced : No

  529. Text #40
  530. ID : 42
  531. Format : UTF-8
  532. Codec ID : S_TEXT/UTF8
  533. Codec ID/Info : UTF-8 Plain Text
  534. Duration : 1 h 36 min
  535. Bit rate : 101 b/s
  536. Count of elements : 1272
  537. Stream size : 72.2 KiB (0%)
  538. Language : Vietnamese
  539. Default : No
  540. Forced : No
复制代码

Fireball / 火球/火球:来自黑暗世界的访客4k  Fireball.Visitors.From.Darker.Worlds.2020.HDR.2160p.WEB.H265-4k纪录片下载

火球:来自黑暗世界的访客4k Fireball.Visitors.From.Darker.Worlds.2020.HDR.2160p.WEB.H265【16.39 GB】
[Hao4k]火球:来自黑暗世界的访客4k Fireball.Visitors.From.Darker.Worlds.2020.HDR..torrent
(82.72 KB, 售价: 3 K币)
回复

使用道具 举报

发烧友评论71

倒序浏览
yanyun516 发表于 昨天 20:43 | 显示全部楼层
谢谢楼主分享!
回复 支持 反对

使用道具 举报

Fandy023 发表于 昨天 13:08 | 显示全部楼层
支持GHDGSJ
回复 支持 反对

使用道具 举报

Fandy023 发表于 昨天 13:07 | 显示全部楼层
支持高清纪录片
回复 支持 反对

使用道具 举报

joseph1118 发表于 昨天 09:23 | 显示全部楼层
谢谢  练听力的时候到了
回复 支持 反对

使用道具 举报

farcity2001 发表于 前天 22:06 Hao4K手机版 | 显示全部楼层
为啥能点亮杜比视界…
回复 支持 反对

使用道具 举报

panbell 发表于 前天 16:04 | 显示全部楼层
牛,更新够快!!
回复 支持 反对

使用道具 举报

一去红尘 发表于 前天 16:00 | 显示全部楼层
就喜欢纪录片
回复 支持 反对

使用道具 举报

billluoxuchu 发表于 3 天前 | 显示全部楼层
没有字幕嘛
回复 支持 反对

使用道具 举报

yn251147 发表于 3 天前 | 显示全部楼层
高清的纪录片,应该不错,感谢分享
回复 支持 反对

使用道具 举报

scutpig 发表于 4 天前 | 显示全部楼层
774992053 发表于 2020-11-18 19:49
magnet:?xt=urn:btih:5198E756080A8F345A05D197E18100D870368958

谢谢,活雷锋
回复 支持 反对

使用道具 举报

wx_xYxy27cK 发表于 5 天前 | 显示全部楼层
进度尼西亚 语都有 就是没中文 是这样么? 40几种语言都有就是没中文 对么?
回复 支持 反对

使用道具 举报

阿伟影视 发表于 5 天前 | 显示全部楼层
好片子 棒啊
回复 支持 反对

使用道具 举报

wutao2006 发表于 5 天前 | 显示全部楼层
感谢无私分享
回复 支持 反对

使用道具 举报

nicholas9999 发表于 5 天前 | 显示全部楼层
谢谢楼主的无私分享
回复 支持 反对

使用道具 举报

774992053 发表于 6 天前 | 显示全部楼层
magnet:?xt=urn:btih:5198E756080A8F345A05D197E18100D870368958
回复 支持 反对

使用道具 举报

tanghao0823 发表于 6 天前 | 显示全部楼层
谢谢楼主的无私分享
回复 支持 反对

使用道具 举报

您需要登录后才可以回帖 登录 | 立即注册

本版积分规则

在线客服

在线客服

服务时间 9:00—18:00

返回顶部

关注微信公众号第一时间推送精彩

官方微信

手机访问

Hao4K影音

专注4k家庭影音,提供家庭影音社区,家庭影音器材库,影音问答平台,影音商城,服务千万家庭影音用户。

本站内容部分由用户自主分享和转载自互联网,转载目的在于传递更多信息,并不代表本网赞同其观点和对其真实性负责。

如有侵权、违反国家法律政策行为,请联系我们,我们会第一时间及时清除和处理!

举报反馈邮箱:admin@hao4k.cn

Copyright  2019-2020  Hao4K影音粤公网安备 44030302001429号    ( 粤ICP备18155646号-1 )|网站地图