微博 微信

Hao4K影音

电影频道
电影封面:
片  名: 最幸福的季节4k
电影分类: 爱情片 
国  家: 美国 
年  代: 2020年
分 辨 率: 4K(3840x2160)
电影格式: MKV|REMUX 
画质标准: 其他 
音质编码: Dolby Digital Plus Audio 
电影声道: 5.1声道 其他 
帧数/FPS: 23.976 FPS
电影语言: 英文原版 
资源大小: 10.85 GB
导  演: 克里·杜瓦尔
豆瓣评分: 5.2 分
中文字幕: /thread-51597-1-1.html
剧情简介: 述一个年轻女子准备在家庭一年一度的假日聚会上向女友求婚,结果发现女友还未向保守的父母出柜。
最幸福的季节4k Happiest.Season.2020.2160p.WEB.H265.电影信息
  1. Video
  2. ID : 1
  3. Format : HEVC
  4. Format/Info : High Efficiency Video Coding
  5. Format profile : Main 10@L5.1@Main
  6. Codec ID : V_MPEGH/ISO/HEVC
  7. Duration : 1 h 41 min
  8. Bit rate : 14.7 Mb/s
  9. Width : 3 840 pixels
  10. Height : 2 160 pixels
  11. Display aspect ratio : 16:9
  12. Frame rate mode : Constant
  13. Frame rate : 23.976 (24000/1001) FPS
  14. Color space : YUV
  15. Chroma subsampling : 4:2:0
  16. Bit depth : 10 bits
  17. Bits/(Pixel*Frame) : 0.074
  18. Stream size : 10.5 GiB (96%)
  19. Default : Yes
  20. Forced : No

  21. Audio
  22. ID : 2
  23. Format : E-AC-3
  24. Format/Info : Enhanced AC-3
  25. Commercial name : Dolby Digital Plus
  26. Codec ID : A_EAC3
  27. Duration : 1 h 41 min
  28. Bit rate mode : Constant
  29. Bit rate : 256 kb/s
  30. Channel(s) : 6 channels
  31. Channel layout : L R C LFE Ls Rs
  32. Sampling rate : 48.0 kHz
  33. Frame rate : 31.250 FPS (1536 SPF)
  34. Compression mode : Lossy
  35. Stream size : 187 MiB (2%)
  36. Language : English
  37. Service kind : Complete Main
  38. Default : Yes
  39. Forced : No

  40. Text #1
  41. ID : 3
  42. Format : UTF-8
  43. Codec ID : S_TEXT/UTF8
  44. Codec ID/Info : UTF-8 Plain Text
  45. Title : English
  46. Language : English
  47. Default : No
  48. Forced : No

  49. Text #2
  50. ID : 4
  51. Format : UTF-8
  52. Codec ID : S_TEXT/UTF8
  53. Codec ID/Info : UTF-8 Plain Text
  54. Title : Spanish
  55. Language : Spanish
  56. Default : No
  57. Forced : No
复制代码

最幸福的季节4k Happiest.Season.2020.2160p.WEB.H265.电影下载

最幸福的季节4K.Happiest.Season.2020.2160p.WEB.H265【10.85 GB】
[Hao4k]最幸福的季节4k Happiest.Season.2020.2160p.WEB.H265-NAISU.torrent (54.83 KB)
回复

使用道具 举报

quake2009 发表于 2021-1-12 20:14:04

quake2009 34#

2021-1-12 20:14:04

感谢分享,辛苦了 谢谢啊!
回复 支持 反对

使用道具 举报

XINGE456 发表于 2021-1-11 13:28:49

XINGE456 33#

2021-1-11 13:28:49

ganxie分享呀
回复 支持 反对

使用道具 举报

huyjan 发表于 2020-12-12 21:27:59

huyjan 32#

2020-12-12 21:27:59

谢谢楼主分享
回复 支持 反对

使用道具 举报

panbell 发表于 2020-12-10 10:50:45

panbell 31#

2020-12-10 10:50:45

感谢分享,辛苦了
回复 支持 反对

使用道具 举报

lonelyman015043 发表于 2020-12-10 00:56:55

lonelyman015043 30#

2020-12-10 00:56:55

谢谢楼主分享
回复 支持 反对

使用道具 举报

pky008 发表于 2020-12-5 17:35:15

pky008 29#

2020-12-5 17:35:15

感谢分享,值得下
回复 支持 反对

使用道具 举报

shencr198 发表于 2020-12-1 15:24:40

shencr198 27#

2020-12-1 15:24:40


感谢楼主,支持HAO 4K
回复 支持 反对

使用道具 举报

ywf6168 发表于 2020-11-29 21:39:59

ywf6168 26#

2020-11-29 21:39:59

好评,楼主辛苦了
回复 支持 反对

使用道具 举报

kicat 发表于 2020-11-28 23:03:31

kicat 25#

2020-11-28 23:03:31

感谢楼主的share,谢谢!
回复 支持 反对

使用道具 举报

dm700 发表于 2020-11-28 21:06:54

dm700 24#

2020-11-28 21:06:54

感谢分享,辛苦了。
回复 支持 反对

使用道具 举报

呱啦呱啦22 发表于 2020-11-27 22:22:25

呱啦呱啦22 23#

2020-11-27 22:22:25

好评,楼主辛苦了
回复 支持 反对

使用道具 举报

alonesun87 发表于 2020-11-27 21:56:00

alonesun87 22#

2020-11-27 21:56:00

感谢楼主分享
回复 支持 反对

使用道具 举报

hetz 发表于 2020-11-27 16:12:01

hetz 21#

2020-11-27 16:12:01

感谢楼主分享,谢谢啊!
回复 支持 反对

使用道具 举报

hetz 发表于 2020-11-27 16:11:00

hetz 20#

2020-11-27 16:11:00

感谢楼主分享,谢谢啊!
回复 支持 反对

使用道具 举报

Leo=Bill 发表于 2020-11-27 12:27:54

Leo=Bill 19#

2020-11-27 12:27:54

thank you for your sharing
回复 支持 反对

使用道具 举报

zy7413 发表于 2020-11-27 12:04:24

zy7413 18#

2020-11-27 12:04:24

感谢楼主分享,谢谢啊!
回复 支持 反对

使用道具 举报

   发表回复

您需要登录后才可以回帖 登录 | 立即注册

返回列表 本版积分规则

  • 在线客服

  • 返回顶部