微博 微信

Hao4K影音

电影频道
电影封面:
片  名: 怪物猎人4k
电影分类: 动作 冒险 奇幻 
国  家: 美国 
年  代: 2020年
分 辨 率: 4K(3840x2160)
电影格式: MKV|REMUX 
画质标准: HDR SDR 
音质编码: Dolby Digital Plus Audio 
电影声道: 5.1声道 
帧数/FPS: 23.976 FPS
电影语言: 中文繁体 英文原版 
资源大小: 10.99 GB
导  演: 保罗·安德森
豆瓣评分: 6.7 分
中文字幕: -
剧情简介: 在我们的世界背后,还有另外一个世界:这里满是危险而强大的怪物,用它们的凶残奠定了在这个世界的统治地位。阿特米斯队长(米拉·乔沃维奇饰)和她的队员们(TI哈里斯、梅根·古德、迭戈·博内塔饰)被一场突如其来的沙尘暴传送到了一个前所未见的新世界,在未知而充满敌意的环境里,他们无比震惊地发现了大量令人恐惧且免疫热兵器攻击的怪兽。充满绝望的生死存亡之战中,这只小队遭遇了一名神秘的猎手(托尼·贾饰),他掌握了一些独一无二的技能,让他能在面对这些强大生物时占据上风。随着阿特米斯和猎人之间逐渐建立信任,她发现这名猎人其实是一支团队的一员,他们的首领名叫阿德米尔(朗·普尔曼饰)。面对一场足以毁灭这个世界的危机,身怀绝技的勇敢武士们团结在一起,齐心协力应对这次终极之战。影片改编自畅销全球的现象级游戏作品《怪物猎人》。
怪物猎人4k.Monster.Hunter.2020.2160p.AMZN.WEB-DL.x265.8bit.SDR.DDP5.1-4k电影信息
  1. Video
  2. ID : 1
  3. Format : HEVC
  4. Format/Info : High Efficiency Video Coding
  5. Format profile : Main@L5@Main
  6. Codec ID : V_MPEGH/ISO/HEVC
  7. Duration : 1 h 43 min
  8. Bit rate : 9 478 kb/s
  9. Width : 3 840 pixels
  10. Height : 1 600 pixels
  11. Display aspect ratio : 2.40:1
  12. Frame rate mode : Constant
  13. Frame rate : 23.976 (24000/1001) FPS
  14. Standard : NTSC
  15. Color space : YUV
  16. Chroma subsampling : 4:2:0
  17. Bit depth : 8 bits
  18. Bits/(Pixel*Frame) : 0.064
  19. Stream size : 6.83 GiB (94%)
  20. Writing library : x265 2.9_elemental+1-9e0607aa5b6f:[Linux][GCC 4.8.5][64 bit] 8bit+10bit+12bit
  21. Encoding settings : cpuid=1111039 / frame-threads=2 / wpp / no-pmode / no-pme / psnr / ssim / log-level=2 / csv / csv-log-level=2 / input-csp=1 / input-res=3840x1600 / interlace=0 / total-frames=0 / level-idc=50 / high-tier=1 / uhd-bd=0 / ref=5 / no-allow-non-conformance / no-repeat-headers / annexb / no-aud / no-hrd / info / hash=0 / no-temporal-layers / no-open-gop / min-keyint=61 / keyint=120 / gop-lookahead=0 / bframes=8 / b-adapt=2 / b-pyramid / bframe-bias=0 / rc-lookahead=120 / lookahead-slices=4 / scenecut=0 / radl=0 / no-intra-refresh / ctu=64 / min-cu-size=8 / rect / amp / max-tu-size=32 / tu-inter-depth=4 / tu-intra-depth=4 / limit-tu=4 / rdoq-level=2 / dynamic-rd=0.00 / no-ssim-rd / signhide / tskip / nr-intra=100 / nr-inter=600 / no-constrained-intra / strong-intra-smoothing / max-merge=3 / limit-refs=3 / limit-modes / me=3 / subme=3 / merange=57 / temporal-mvp / weightp / weightb / no-analyze-src-pics / deblock=0:0 / no-sao / no-sao-non-deblock / rd=4 / no-early-skip / no-rskip / no-fast-intra / tskip-fast / no-cu-lossless / b-intra / no-splitrd-skip / rdpenalty=0 / psy-rd=4.00 / psy-rdoq=10.00 / no-rd-refine / no-lossless / cbqpoffs=0 / crqpoffs=0 / rc=crf / crf=25.0 / qcomp=0.60 / qpstep=1 / stats-write=0 / stats-read=0 / vbv-maxrate=15000 / vbv-bufsize=20000 / vbv-init=0.9 / crf-max=0.0 / crf-min=0.0 / ipratio=1.10 / pbratio=1.00 / aq-mode=0 / aq-strength=1.50 / no-cutree / zone-count=0 / no-strict-cbr / qg-size=32 / rc-grain / qpmax=69 / qpmin=0 / const-vbv / sar=1 / overscan=0 / videoformat=2 / range=0 / colorprim=1 / transfer=1 / colormatrix=1 / chromaloc=0 / display-window=0 / max-cll=0,0 / min-luma=0 / max-luma=255 / log2-max-poc-lsb=8 / vui-timing-info / vui-hrd-info / slices=1 / opt-qp-pps / no-opt-ref-list-length-pps / no-multi-pass-opt-rps / scenecut-bias=0.05 / no-opt-cu-delta-qp / no-aq-motion / no-hdr / no-hdr-opt / no-dhdr10-opt / no-idr-recovery-sei / analysis-reuse-level=5 / scale-factor=0 / refine-intra=0 / refine-inter=0 / refine-mv=0 / no-limit-sao / ctu-info=0 / no-lowpass-dct / refine-mv-type=0 / copy-pic=1 / max-ausize-factor=1.0 / no-dynamic-refine / no-single-sei
  22. Default : Yes
  23. Forced : No
  24. Color range : Limited
  25. Color primaries : BT.709
  26. Transfer characteristics : BT.709
  27. Matrix coefficients : BT.709

  28. Audio
  29. ID : 2
  30. Format : E-AC-3
  31. Format/Info : Enhanced AC-3
  32. Commercial name : Dolby Digital Plus
  33. Codec ID : A_EAC3
  34. Duration : 1 h 43 min
  35. Bit rate mode : Constant
  36. Bit rate : 640 kb/s
  37. Channel(s) : 6 channels
  38. Channel layout : L R C LFE Ls Rs
  39. Sampling rate : 48.0 kHz
  40. Frame rate : 31.250 FPS (1536 SPF)
  41. Compression mode : Lossy
  42. Stream size : 472 MiB (6%)
  43. Title : DDP 5.1
  44. Language : English
  45. Service kind : Complete Main
  46. Default : Yes
  47. Forced : No

  48. Text #1
  49. ID : 3
  50. Format : UTF-8
  51. Codec ID : S_TEXT/UTF8
  52. Codec ID/Info : UTF-8 Plain Text
  53. Duration : 43 min 44 s
  54. Bit rate : 0 b/s
  55. Count of elements : 7
  56. Stream size : 172 Bytes (0%)
  57. Title : FORCED
  58. Language : English
  59. Default : Yes
  60. Forced : Yes

  61. Text #2
  62. ID : 4
  63. Format : UTF-8
  64. Codec ID : S_TEXT/UTF8
  65. Codec ID/Info : UTF-8 Plain Text
  66. Duration : 1 h 29 min
  67. Bit rate : 19 b/s
  68. Count of elements : 515
  69. Stream size : 12.6 KiB (0%)
  70. Language : English
  71. Default : No
  72. Forced : No

  73. Text #3
  74. ID : 5
  75. Format : UTF-8
  76. Codec ID : S_TEXT/UTF8
  77. Codec ID/Info : UTF-8 Plain Text
  78. Duration : 1 h 42 min
  79. Bit rate : 25 b/s
  80. Count of elements : 986
  81. Stream size : 19.2 KiB (0%)
  82. Title : SDH
  83. Language : English
  84. Default : No
  85. Forced : No
复制代码

怪物猎人4k.Monster.Hunter.2020.2160p.AMZN.WEB-DL.x265.8bit.SDR.DDP5.1-4K电影下载

怪物猎人4k.Monster.Hunter.2020.2160p.AMZN.WEB-DL.x265.10bit.HDR10plus.DDP5.1【4K HDR 10.99 GB】
[Hao4K]怪物猎人4K.Monster.Hunter.2020.2160p.AMZN.WEB-DL.x265.10bit.HDR10plus.DDP.torrent (55.55 KB, 售价: 2 K币)

怪物猎人4k.Monster.Hunter.2020.2160p.AMZN.WEB-DL.x265.8bit.SDR.DDP5.1【4K SDR 7.29 GB】
[Hao4K]怪物猎人4K.Monster.Hunter.2020.2160p.AMZN.WEB-DL.x265.8bit.SDR.DDP5.1-SWT.torrent (37 KB, 售价: 2 K币)
分享到:  QQ好友和群QQ好友和群
回复

使用道具 举报

全部回复421

沙发
nickboss 发表于 2021-2-16 21:49:17

nickboss 沙发

2021-2-16 21:49:17

好新鲜的资源
回复 支持 2 反对 0

使用道具 举报

板凳
djkty001 发表于 2021-2-16 21:54:04

djkty001 板凳

2021-2-16 21:54:04

前排  哈哈哈哈  感谢
回复 支持 反对

使用道具 举报

地板
ywf6168 发表于 2021-2-16 21:57:44

ywf6168 地板

2021-2-16 21:57:44

谢谢分享新片
回复 支持 反对

使用道具 举报

5#
VmaxQ 发表于 2021-2-16 21:59:23

VmaxQ 5#

2021-2-16 21:59:23

真幸运,刚刚赶上新鲜出炉,哈哈哈,感谢感谢!
回复 支持 反对

使用道具 举报

6#
zqw8 发表于 2021-2-16 22:04:29

zqw8 6#

2021-2-16 22:04:29

赶上新鲜出炉,

感谢!感谢!
回复 支持 反对

使用道具 举报

7#
yale 发表于 2021-2-16 22:07:16

yale 7#

2021-2-16 22:07:16

谢谢分享
回复 支持 反对

使用道具 举报

8#
qin5866 发表于 2021-2-16 22:09:55

qin5866 8#

2021-2-16 22:09:55

哈哈,感谢感谢!
回复 支持 反对

使用道具 举报

9#
kgdmiao12345 发表于 2021-2-16 22:10:41

kgdmiao12345 9#

2021-2-16 22:10:41

谢谢分享!
回复 支持 反对

使用道具 举报

10#
零崎祟识 发表于 2021-2-16 22:18:46

零崎祟识 10#

2021-2-16 22:18:46

谢谢。。。不过才11G。。。
回复 支持 反对

使用道具 举报

11#
卢卡维客 发表于 2021-2-16 22:20:02

卢卡维客 11#

2021-2-16 22:20:02

下载来看看
回复 支持 反对

使用道具 举报

12#
lunasea526 发表于 2021-2-16 22:32:13

lunasea526 12#

2021-2-16 22:32:13

这么快,感谢楼主!
回复 支持 反对

使用道具 举报

13#
D汤勺 发表于 2021-2-16 22:39:51 Hao4K手机版

D汤勺 13#

2021-2-16 22:39:51

感谢感谢
回复 支持 反对

使用道具 举报

14#
abigaier 发表于 2021-2-16 22:43:07

abigaier 14#

2021-2-16 22:43:07

感謝大大分享
回复 支持 反对

使用道具 举报

15#
joseph1118 发表于 2021-2-16 22:58:48

joseph1118 15#

2021-2-16 22:58:48

好慢....
回复 支持 反对

使用道具 举报

16#
kksuzuki 发表于 2021-2-16 23:00:17

kksuzuki 16#

2021-2-16 23:00:17

好像没资源
回复 支持 反对

使用道具 举报

17#
清真之旅 发表于 2021-2-16 23:04:09

清真之旅 17#

2021-2-16 23:04:09

总算来了
回复 支持 反对

使用道具 举报

18#
蜡笔小亮 发表于 2021-2-16 23:05:26 Hao4K手机版

蜡笔小亮 18#

2021-2-16 23:05:26

谢谢分享
回复 支持 反对

使用道具 举报

   发表回复

您需要登录后才可以回帖 登录 | 立即注册

返回列表 本版积分规则

  • 在线客服

  • 返回顶部