微博 微信

Hao4K影音

电影频道
电影封面:
片  名: 别告诉她4k
电影分类: 剧情 其他 
国  家: 美国 中国大陆 
年  代: 2019年
分 辨 率: 4K(3840x2160)
电影格式: MKV|REMUX 
画质标准: SDR 
音质编码: DTS-HD Master Audio 
电影声道: 5.1声道 
帧数/FPS: 23.976 FPS
电影语言: 英文原版 
资源大小: 12.38 GB
导  演: 王子逸
豆瓣评分: 7.3 分
中文字幕: -
剧情简介: 影片讲述一个华人家庭的奶奶被诊断罹癌,但家人选择隐瞒奶奶,假借一场婚礼的名义让所有家人回家见奶奶最后一面,但在纽约长大的碧莉(奥卡菲娜饰演)认为知道自己病况是奶奶的人权,因此在华人家庭中上演一场中西文化冲突,一部寻根家庭喜剧。故事改编自华裔女导演王子逸自己的家庭故事,她也因本片被《综艺》杂志评选2019年必关注导演之一。
别对她说 / 不要告诉她 / 告别婚礼/别告诉她4k The.Farewell.2019.CHINESE.ENSUBBED.2160p.WEB-DL.x265.8bit.SDR.DTS-HD.MA.5.1.电影信息
  1. Video
  2. ID : 1
  3. Format : HEVC
  4. Format/Info : High Efficiency Video Coding
  5. Format profile : Main@L5@Main
  6. Codec ID : V_MPEGH/ISO/HEVC
  7. Duration : 1 h 39 min
  8. Bit rate : 14.7 Mb/s
  9. Width : 3 840 pixels
  10. Height : 2 160 pixels
  11. Display aspect ratio : 16:9
  12. Frame rate mode : Constant
  13. Frame rate : 23.976 (24000/1001) FPS
  14. Original frame rate : 23.976 (23976/1000) FPS
  15. Color space : YUV
  16. Chroma subsampling : 4:2:0
  17. Bit depth : 8 bits
  18. Bits/(Pixel*Frame) : 0.074
  19. Stream size : 10.3 GiB (83%)
  20. Writing library : x265 3.0:[Linux][GCC 4.8.5][64 bit] 8bit
  21. Encoding settings : cpuid=1111039 / frame-threads=6 / wpp / no-pmode / no-pme / no-psnr / no-ssim / log-level=2 / input-csp=1 / input-res=3840x2160 / interlace=0 / total-frames=0 / level-idc=0 / high-tier=1 / uhd-bd=0 / ref=3 / no-allow-non-conformance / no-repeat-headers / annexb / no-aud / no-hrd / info / hash=0 / no-temporal-layers / no-open-gop / min-keyint=4 / keyint=48 / gop-lookahead=0 / bframes=4 / b-adapt=2 / b-pyramid / bframe-bias=0 / rc-lookahead=80 / lookahead-slices=4 / scenecut=0 / radl=0 / no-splice / no-intra-refresh / ctu=64 / min-cu-size=8 / rect / no-amp / max-tu-size=32 / tu-inter-depth=1 / tu-intra-depth=1 / limit-tu=0 / rdoq-level=2 / dynamic-rd=0.00 / no-ssim-rd / signhide / no-tskip / nr-intra=0 / nr-inter=0 / no-constrained-intra / strong-intra-smoothing / max-merge=3 / limit-refs=3 / limit-modes / me=2 / subme=3 / merange=64 / temporal-mvp / weightp / no-weightb / no-analyze-src-pics / deblock=0:0 / no-sao / no-sao-non-deblock / rd=4 / no-early-skip / no-rskip / no-fast-intra / no-tskip-fast / no-cu-lossless / no-b-intra / no-splitrd-skip / rdpenalty=0 / psy-rd=4.00 / psy-rdoq=10.00 / no-rd-refine / no-lossless / cbqpoffs=0 / crqpoffs=0 / rc=abr / bitrate=15000 / qcomp=0.60 / qpstep=1 / stats-write=0 / stats-read=0 / vbv-maxrate=22500 / vbv-bufsize=22500 / vbv-init=0.9 / ipratio=1.10 / pbratio=1.00 / aq-mode=0 / aq-strength=0.00 / no-cutree / zone-count=0 / no-strict-cbr / qg-size=32 / rc-grain / qpmax=69 / qpmin=0 / const-vbv / sar=1 / overscan=0 / videoformat=5 / range=0 / colorprim=1 / transfer=1 / colormatrix=1 / chromaloc=0 / display-window=0 / max-cll=0,0 / min-luma=0 / max-luma=255 / log2-max-poc-lsb=8 / vui-timing-info / vui-hrd-info / slices=1 / no-opt-qp-pps / no-opt-ref-list-length-pps / no-multi-pass-opt-rps / scenecut-bias=0.05 / no-opt-cu-delta-qp / no-aq-motion / no-hdr / no-hdr-opt / no-dhdr10-opt / no-idr-recovery-sei / analysis-reuse-level=5 / scale-factor=0 / refine-intra=0 / refine-inter=0 / refine-mv=0 / refine-ctu-distortion=0 / no-limit-sao / ctu-info=0 / no-lowpass-dct / refine-analysis-type=0 / copy-pic=1 / max-ausize-factor=1.0 / no-dynamic-refine / no-single-sei / no-hevc-aq / qp-adaptation-range=1.00
  22. Default : Yes
  23. Forced : No
  24. Color range : Limited
  25. Color primaries : BT.709
  26. Transfer characteristics : BT.709
  27. Matrix coefficients : BT.709

  28. Audio
  29. ID : 2
  30. Format : DTS XLL
  31. Format/Info : Digital Theater Systems
  32. Commercial name : DTS-HD Master Audio
  33. Codec ID : A_DTS
  34. Duration : 1 h 39 min
  35. Bit rate mode : Variable
  36. Bit rate : 2 975 kb/s
  37. Channel(s) : 6 channels
  38. Channel layout : C L R Ls Rs LFE
  39. Sampling rate : 48.0 kHz
  40. Frame rate : 93.750 FPS (512 SPF)
  41. Bit depth : 24 bits
  42. Compression mode : Lossless
  43. Stream size : 2.08 GiB (17%)
  44. Title : DTS-HD MA 5.1
  45. Language : English
  46. Default : Yes
  47. Forced : No

  48. Text #1
  49. ID : 3
  50. Format : UTF-8
  51. Codec ID : S_TEXT/UTF8
  52. Codec ID/Info : UTF-8 Plain Text
  53. Duration : 1 h 31 min
  54. Bit rate : 22 b/s
  55. Count of elements : 597
  56. Stream size : 15.4 KiB (0%)
  57. Title : English-SRT
  58. Language : English
  59. Default : Yes
  60. Forced : No

  61. Text #2
  62. ID : 4
  63. Format : PGS
  64. Muxing mode : zlib
  65. Codec ID : S_HDMV/PGS
  66. Codec ID/Info : Picture based subtitle format used on BDs/HD-DVDs
  67. Duration : 1 h 31 min
  68. Bit rate : 15.4 kb/s
  69. Count of elements : 1237
  70. Stream size : 10.1 MiB (0%)
  71. Title : English-PGS
  72. Language : English
  73. Default : No
  74. Forced : No

  75. Text #3
  76. ID : 5
  77. Format : PGS
  78. Muxing mode : zlib
  79. Codec ID : S_HDMV/PGS
  80. Codec ID/Info : Picture based subtitle format used on BDs/HD-DVDs
  81. Duration : 1 h 38 min
  82. Bit rate : 29.9 kb/s
  83. Count of elements : 2230
  84. Stream size : 21.2 MiB (0%)
  85. Title : Spanish-PGS
  86. Language : Spanish
  87. Default : No
  88. Forced : No

  89. Menu
  90. 00:00:00.000 : en:Chapter 1
  91. 00:06:05.198 : en:Chapter 2
  92. 00:12:44.180 : en:Chapter 3
  93. 00:19:49.104 : en:Chapter 4
  94. 00:25:18.767 : en:Chapter 5
  95. 00:30:53.935 : en:Chapter 6
  96. 00:35:05.228 : en:Chapter 7
  97. 00:44:44.306 : en:Chapter 8
  98. 00:51:28.168 : en:Chapter 9
  99. 00:55:31.244 : en:Chapter 10
  100. 01:03:09.368 : en:Chapter 11
  101. 01:07:16.365 : en:Chapter 12
  102. 01:15:48.877 : en:Chapter 13
  103. 01:22:03.418 : en:Chapter 14
  104. 01:27:38.669 : en:Chapter 15
  105. 01:32:33.923 : en:Chapter 16
复制代码

别对她说 / 不要告诉她 / 告别婚礼/别告诉她4k The.Farewell.2019.CHINESE.ENSUBBED.2160p.WEB-DL.x265.8bit.SDR.DTS-HD.MA.5.1.电影下载

别告诉她4k The.Farewell.2019.CHINESE.ENSUBBED.2160p.WEB-DL.x265.8bit.SDR.DTS-HD.MA.5.1【12.38 GB】
[Hao4k]别告诉她4k The.Farewell.2019.CHINESE.ENSUBBED.2160p.WEB-DL.x265.8bit.SDR..torrent (62.48 KB)
回复

使用道具 举报

全部回复8

andywjhh 发表于 7 天前

andywjhh 沙发

7 天前

感谢分享,楼主辛苦你了哦
回复 支持 反对

使用道具 举报

leopold927 发表于 7 天前

leopold927 板凳

7 天前

谢谢分享好片
回复 支持 反对

使用道具 举报

jm_y0706 发表于 6 天前

jm_y0706 地板

6 天前

感谢分享!!!
回复 支持 反对

使用道具 举报

bonna 发表于 6 天前

bonna 5#

6 天前

电影声道:        5.1声道
回复 支持 反对

使用道具 举报

panbell 发表于 6 天前

panbell 6#

6 天前

感谢楼主!谢谢分享!
回复 支持 反对

使用道具 举报

大中至正 发表于 6 天前

大中至正 7#

6 天前

感谢分享
回复 支持 反对

使用道具 举报

shiranui 发表于 5 天前

shiranui 8#

5 天前

谢谢分享
回复 支持 反对

使用道具 举报

hanguangyiman 发表于 4 天前 Hao4K手机版

hanguangyiman 9#

4 天前

不错,收藏了
回复 支持 反对

使用道具 举报

   发表回复

您需要登录后才可以回帖 登录 | 立即注册

返回列表 本版积分规则

  • 在线客服

  • 返回顶部