微博 微信

Hao4K影音

电影频道
电影封面:
片  名: 超级智能4K
电影分类: 动作 喜剧 
国  家: 美国 
年  代: 2020年
分 辨 率: 4K(3840x2160)
电影格式: MKV|REMUX 
画质标准: HDR10 SDR 
音质编码: Dolby Digital Plus Audio 
电影声道: 5.1声道 
帧数/FPS: 23.976 帧
电影语言: 英文原版 
资源大小: 8.61 GB
导  演: 本·法尔科内
豆瓣评分: 5.4 分
中文字幕: /thread-55896-1-1.html
剧情简介: 梅丽莎·麦卡西将主演动作喜剧《超级智能》(Super-Intelligence),麦卡西丈夫本·法尔科内执导,这是两人自《塔米的旅行》《老板》《派对主角》后第四次以演员-导演身份合作。麦卡西饰演前企业高管Carol Peters,当她被世界上第一个超级智能——一个可能掌控世界的人工智能选中作为观察目标后,她的生活发生翻天覆地的变化。Steve Mallory(《老板》)编写剧本,7月开拍,新线出品。
超级智能4K.Superintelligence.2020.2160p.WEB-DL.x265.10bit.HDR10Plus.DDP5.1-4k电影信息
  1. Video
  2. ID : 1
  3. Format : HEVC
  4. Format/Info : High Efficiency Video Coding
  5. Format profile : Main 10@L5.1@Main
  6. HDR format : SMPTE ST 2094 App 4, Version 1, HDR10+ Profile B compatible
  7. Codec ID : V_MPEGH/ISO/HEVC
  8. Duration : 1 h 45 min
  9. Bit rate : 11.4 Mb/s
  10. Width : 3 840 pixels
  11. Height : 2 160 pixels
  12. Display aspect ratio : 16:9
  13. Frame rate mode : Constant
  14. Frame rate : 23.976 (23976/1000) FPS
  15. Color space : YUV
  16. Chroma subsampling : 4:2:0
  17. Bit depth : 10 bits
  18. Bits/(Pixel*Frame) : 0.057
  19. Stream size : 8.42 GiB (98%)
  20. Writing library : x265 3.4:[Linux][GCC 6.3.0][64 bit] 10bit
  21. Encoding settings : cpuid=1111039 / frame-threads=3 / wpp / no-pmode / no-pme / no-psnr / no-ssim / log-level=2 / input-csp=1 / input-res=3840x2160 / interlace=0 / total-frames=0 / level-idc=51 / high-tier=1 / uhd-bd=0 / ref=4 / no-allow-non-conformance / repeat-headers / annexb / no-aud / no-hrd / info / hash=0 / no-temporal-layers / no-open-gop / min-keyint=24 / keyint=48 / gop-lookahead=0 / bframes=3 / b-adapt=0 / no-b-pyramid / bframe-bias=0 / rc-lookahead=15 / lookahead-slices=8 / scenecut=0 / radl=0 / no-splice / no-intra-refresh / ctu=64 / min-cu-size=8 / no-rect / no-amp / max-tu-size=32 / tu-inter-depth=1 / tu-intra-depth=1 / limit-tu=0 / rdoq-level=0 / dynamic-rd=0.00 / no-ssim-rd / signhide / no-tskip / nr-intra=0 / nr-inter=0 / no-constrained-intra / strong-intra-smoothing / max-merge=2 / limit-refs=3 / no-limit-modes / me=1 / subme=2 / merange=57 / temporal-mvp / weightp / no-weightb / no-analyze-src-pics / deblock=0:0 / sao / no-sao-non-deblock / rd=2 / no-early-skip / rskip / fast-intra / no-tskip-fast / no-cu-lossless / no-b-intra / no-splitrd-skip / rdpenalty=0 / psy-rd=2.00 / psy-rdoq=0.00 / no-rd-refine / no-lossless / cbqpoffs=0 / crqpoffs=0 / rc=cbr / bitrate=11440 / qcomp=0.60 / qpstep=4 / stats-write=0 / stats-read=0 / vbv-maxrate=11440 / vbv-bufsize=22440 / vbv-init=0.9 / ipratio=1.40 / pbratio=1.30 / aq-mode=2 / aq-strength=1.00 / cutree / zone-count=0 / no-strict-cbr / qg-size=32 / no-rc-grain / qpmax=69 / qpmin=0 / no-const-vbv / sar=1 / overscan=0 / videoformat=5 / range=0 / colorprim=9 / transfer=16 / colormatrix=9 / chromaloc=0 / display-window=0 / master-display=G(13250,34500)B(7500,3000)R(34000,16000)WP(15635,16450)L(40000000,50) / max-cll=829,93 / min-luma=0 / max-luma=1023 / log2-max-poc-lsb=8 / vui-timing-info / vui-hrd-info / slices=1 / no-opt-qp-pps / no-opt-ref-list-length-pps / no-multi-pass-opt-rps / scenecut-bias=0.05 / no-opt-cu-delta-qp / no-aq-motion / hdr / no-hdr-opt / no-dhdr10-opt / no-idr-recovery-sei / analysis-reuse-level=5 / scale-factor=0 / refine-intra=0 / refine-inter=0 / refine-mv=0 / refine-ctu-distortion=0 / no-limit-sao / ctu-info=0 / no-lowpass-dct / refine-analysis-type=0 / copy-pic=1 / max-ausize-factor=1.0 / no-dynamic-refine / no-single-sei / no-hevc-aq / qp-adaptation-range=1.00
  22. Default : Yes
  23. Forced : No
  24. Color range : Limited
  25. Color primaries : BT.2020
  26. Transfer characteristics : PQ
  27. Matrix coefficients : BT.2020 non-constant
  28. Mastering display color primaries : Display P3
  29. Mastering display luminance : min: 0.0050 cd/m2, max: 4000 cd/m2
  30. Maximum Content Light Level : 829 cd/m2
  31. Maximum Frame-Average Light Level : 93 cd/m2

  32. Audio
  33. ID : 2
  34. Format : E-AC-3
  35. Format/Info : Enhanced AC-3
  36. Commercial name : Dolby Digital Plus
  37. Codec ID : A_EAC3
  38. Duration : 1 h 45 min
  39. Bit rate mode : Constant
  40. Bit rate : 256 kb/s
  41. Channel(s) : 6 channels
  42. Channel layout : L R C LFE Ls Rs
  43. Sampling rate : 48.0 kHz
  44. Frame rate : 31.250 FPS (1536 SPF)
  45. Compression mode : Lossy
  46. Stream size : 194 MiB (2%)
  47. Language : English
  48. Service kind : Complete Main
  49. Default : Yes
  50. Forced : No

  51. Text #1
  52. ID : 3
  53. Format : UTF-8
  54. Codec ID : S_TEXT/UTF8
  55. Codec ID/Info : UTF-8 Plain Text
  56. Duration : 1 h 44 min
  57. Bit rate : 92 b/s
  58. Count of elements : 1562
  59. Stream size : 70.8 KiB (0%)
  60. Language : German
  61. Default : No
  62. Forced : No

  63. Text #2
  64. ID : 4
  65. Format : UTF-8
  66. Codec ID : S_TEXT/UTF8
  67. Codec ID/Info : UTF-8 Plain Text
  68. Duration : 1 h 44 min
  69. Bit rate : 99 b/s
  70. Count of elements : 2126
  71. Stream size : 75.8 KiB (0%)
  72. Language : French
  73. Default : No
  74. Forced : No

  75. Text #3
  76. ID : 5
  77. Format : UTF-8
  78. Codec ID : S_TEXT/UTF8
  79. Codec ID/Info : UTF-8 Plain Text
  80. Duration : 1 h 44 min
  81. Bit rate : 96 b/s
  82. Count of elements : 2144
  83. Stream size : 74.0 KiB (0%)
  84. Language : Hungarian
  85. Default : No
  86. Forced : No

  87. Text #4
  88. ID : 6
  89. Format : UTF-8
  90. Codec ID : S_TEXT/UTF8
  91. Codec ID/Info : UTF-8 Plain Text
  92. Duration : 1 h 44 min
  93. Bit rate : 70 b/s
  94. Count of elements : 1281
  95. Stream size : 54.3 KiB (0%)
  96. Language : Dutch
  97. Default : No
  98. Forced : No

  99. Text #5
  100. ID : 7
  101. Format : UTF-8
  102. Codec ID : S_TEXT/UTF8
  103. Codec ID/Info : UTF-8 Plain Text
  104. Duration : 1 h 44 min
  105. Bit rate : 71 b/s
  106. Count of elements : 2051
  107. Stream size : 54.8 KiB (0%)
  108. Language : Polish
  109. Default : No
  110. Forced : No

  111. Text #6
  112. ID : 8
  113. Format : UTF-8
  114. Codec ID : S_TEXT/UTF8
  115. Codec ID/Info : UTF-8 Plain Text
  116. Duration : 1 h 44 min
  117. Bit rate : 89 b/s
  118. Count of elements : 2138
  119. Stream size : 68.9 KiB (0%)
  120. Language : Portuguese
  121. Default : No
  122. Forced : No
复制代码

超级智能4K.Superintelligence.2020.2160p.WEB-DL.x265.10bit.HDR10Plus.DDP5.1-4K电影下载
超级智能4K.Superintelligence.2020.2160p.WEB-DL.x265.10bit.HDR10Plus.DDP5.1【4K HDR 8.61】
[Hao4K]超级智能4K.Superintelligence.2020.2160p.WEB-DL.x265.10bit.HDR10Plus.DDP5..torrent (43.61 KB)
回复

使用道具 举报

全部回复26

mouseking007 发表于 2021-3-31 20:09:47

mouseking007 沙发

2021-3-31 20:09:47

谢谢分享
回复 支持 反对

使用道具 举报

kaneyh 发表于 2021-3-31 20:10:31

kaneyh 板凳

2021-3-31 20:10:31

谢谢分享
回复 支持 反对

使用道具 举报

dragon_walk 发表于 2021-3-31 21:49:14

dragon_walk 地板

2021-3-31 21:49:14

下来看看。喜剧片最爱
回复 支持 反对

使用道具 举报

yale 发表于 2021-3-31 22:31:44

yale 5#

2021-3-31 22:31:44

谢谢分享
回复 支持 反对

使用道具 举报

dyczw 发表于 2021-4-1 06:46:30

dyczw 6#

2021-4-1 06:46:30

感谢分享,辛苦了
回复 支持 反对

使用道具 举报

HanSolo 发表于 2021-4-1 09:22:56

HanSolo 7#

2021-4-1 09:22:56

感謝分享
回复 支持 反对

使用道具 举报

yangly 发表于 2021-4-1 10:01:58

yangly 8#

2021-4-1 10:01:58

感谢分享,辛苦了
回复 支持 反对

使用道具 举报

xxw8888 发表于 2021-4-1 10:06:56

xxw8888 9#

2021-4-1 10:06:56

超级智能,感謝分享
回复 支持 反对

使用道具 举报

lzx6537227 发表于 2021-4-1 10:14:48

lzx6537227 10#

2021-4-1 10:14:48

Thanks♪(・ω・)ノ谢谢无私分享
回复 支持 反对

使用道具 举报

andywjhh 发表于 2021-4-1 11:08:00

andywjhh 11#

2021-4-1 11:08:00

好资源很给力
回复 支持 反对

使用道具 举报

oubeisos 发表于 2021-4-1 15:25:40

oubeisos 12#

2021-4-1 15:25:40

感谢分享,辛苦了
回复 支持 反对

使用道具 举报

cb917918 发表于 2021-4-1 17:00:43

cb917918 13#

2021-4-1 17:00:43

感谢楼主的分享
回复 支持 反对

使用道具 举报

15889971216 发表于 2021-4-2 09:12:15

15889971216 14#

2021-4-2 09:12:15

感谢分享
回复 支持 反对

使用道具 举报

ryanhou 发表于 2021-4-2 22:56:49

ryanhou 15#

2021-4-2 22:56:49


感谢分享,辛苦了
回复 支持 反对

使用道具 举报

evan_mky0318 发表于 2021-4-2 23:31:25

evan_mky0318 16#

2021-4-2 23:31:25

感谢分享,找了好久了·······
回复 支持 反对

使用道具 举报

cwgmaster 发表于 2021-4-3 12:39:10

cwgmaster 17#

2021-4-3 12:39:10

感谢分享!辛苦!
回复 支持 反对

使用道具 举报

lshuangjian 发表于 2021-4-4 13:10:15

lshuangjian 18#

2021-4-4 13:10:15

好东西要分享,谢谢分享
回复 支持 反对

使用道具 举报

   发表回复

您需要登录后才可以回帖 登录 | 立即注册

返回列表 本版积分规则

  • 在线客服

  • 返回顶部