微博 微信

Hao4K影音

电影频道
电影封面:
片  名: 克隆人
电影分类: 科幻 犯罪 悬疑 
国  家: 美国 中国大陆 英国 
年  代: 2018年
分 辨 率: 4K(3840x2160)
电影格式: MKV|REMUX 
画质标准: HDR 
音质编码: DTS-HD Master Audio 
电影声道: 5.1声道 
帧数/FPS: 23.976 帧
电影语言: 英文原版 
资源大小: 13.78 GB
导  演: 杰弗利·纳赫马诺夫
豆瓣评分: 6.1 分
中文字幕: /thread-55947-1-1.html
剧情简介: 供职于某生物科技公司的生物化学科学家威廉·福斯特(基努·里维斯 Keanu Reeves 饰),长久以来一直致力于克隆技术的研究。虽然科研的道路上困难重重,但他距离最终的成功似乎只有一步之遥。谁知就在关键时刻,一场车祸摧毁了他的幸福人生。车祸中,妻子莫娜(爱丽丝·伊芙 Alice Eve 饰)和三个可爱的孩子命归黄泉,这令威廉痛不欲生。然而,科学家的本能又促使他迅速冷静下来。他找到工作中的伙伴埃德·惠特尔(托马斯·米德蒂奇 Thomas Middleditch 饰)帮忙,决定利用自己的研究“复活”家人。
  爱让人疯狂,让人不惜一切代价与全世界对抗
捍卫生死线(台) / 复制品 / 复生人 / 复制人/克隆人4K.Replicas.2018.2160p.WEB-DL.x265.10bit.HDR.DTS-HD.MA.5.1-4k电影信息
  1. Video
  2. ID : 1
  3. Format : HEVC
  4. Format/Info : High Efficiency Video Coding
  5. Format profile : Main 10@L5@Main
  6. HDR format : SMPTE ST 2086, HDR10 compatible
  7. Codec ID : V_MPEGH/ISO/HEVC
  8. Duration : 1 h 47 min
  9. Bit rate : 14.6 Mb/s
  10. Width : 3 840 pixels
  11. Height : 2 160 pixels
  12. Display aspect ratio : 16:9
  13. Frame rate mode : Constant
  14. Frame rate : 23.976 (24000/1001) FPS
  15. Original frame rate : 23.976 (23976/1000) FPS
  16. Color space : YUV
  17. Chroma subsampling : 4:2:0 (Type 2)
  18. Bit depth : 10 bits
  19. Bits/(Pixel*Frame) : 0.073
  20. Stream size : 11.0 GiB (80%)
  21. Writing library : x265 3.0:[Linux][GCC 4.8.5][64 bit] 10bit
  22. Encoding settings : cpuid=1111039 / frame-threads=6 / wpp / no-pmode / no-pme / no-psnr / no-ssim / log-level=2 / input-csp=1 / input-res=3840x2160 / interlace=0 / total-frames=0 / level-idc=50 / high-tier=1 / uhd-bd=0 / ref=3 / no-allow-non-conformance / repeat-headers / annexb / no-aud / no-hrd / info / hash=0 / no-temporal-layers / no-open-gop / min-keyint=48 / keyint=48 / gop-lookahead=0 / bframes=4 / b-adapt=2 / b-pyramid / bframe-bias=0 / rc-lookahead=48 / lookahead-slices=4 / scenecut=40 / radl=0 / no-splice / no-intra-refresh / ctu=64 / min-cu-size=8 / rect / no-amp / max-tu-size=32 / tu-inter-depth=1 / tu-intra-depth=1 / limit-tu=0 / rdoq-level=2 / dynamic-rd=0.00 / no-ssim-rd / signhide / no-tskip / nr-intra=0 / nr-inter=0 / no-constrained-intra / strong-intra-smoothing / max-merge=3 / limit-refs=3 / limit-modes / me=2 / subme=3 / merange=57 / temporal-mvp / weightp / no-weightb / no-analyze-src-pics / deblock=0:0 / no-sao / no-sao-non-deblock / rd=4 / no-early-skip / no-rskip / no-fast-intra / no-tskip-fast / no-cu-lossless / no-b-intra / no-splitrd-skip / rdpenalty=0 / psy-rd=4.00 / psy-rdoq=10.00 / no-rd-refine / no-lossless / cbqpoffs=0 / crqpoffs=0 / rc=abr / bitrate=15000 / qcomp=0.60 / qpstep=1 / stats-write=0 / stats-read=0 / vbv-maxrate=22500 / vbv-bufsize=22500 / vbv-init=0.9 / ipratio=1.10 / pbratio=1.00 / aq-mode=0 / aq-strength=0.00 / no-cutree / zone-count=0 / no-strict-cbr / qg-size=32 / rc-grain / qpmax=69 / qpmin=0 / const-vbv / sar=1 / overscan=0 / videoformat=5 / range=0 / colorprim=9 / transfer=16 / colormatrix=9 / chromaloc=1 / chromaloc-top=2 / chromaloc-bottom=2 / display-window=0 / master-display=G(13250,34500)B(7500,3000)R(34000,16000)WP(15635,16450)L(10000000,10) / max-cll=1001,417 / min-luma=0 / max-luma=1023 / log2-max-poc-lsb=8 / vui-timing-info / vui-hrd-info / slices=1 / no-opt-qp-pps / no-opt-ref-list-length-pps / no-multi-pass-opt-rps / scenecut-bias=0.05 / no-opt-cu-delta-qp / no-aq-motion / hdr / no-hdr-opt / no-dhdr10-opt / no-idr-recovery-sei / analysis-reuse-level=5 / scale-factor=0 / refine-intra=0 / refine-inter=0 / refine-mv=0 / refine-ctu-distortion=0 / no-limit-sao / ctu-info=0 / no-lowpass-dct / refine-analysis-type=0 / copy-pic=1 / max-ausize-factor=1.0 / no-dynamic-refine / no-single-sei / no-hevc-aq / qp-adaptation-range=1.00
  23. Default : Yes
  24. Forced : No
  25. Color range : Limited
  26. Color primaries : BT.2020
  27. Transfer characteristics : PQ
  28. Matrix coefficients : BT.2020 non-constant
  29. Mastering display color primaries : Display P3
  30. Mastering display luminance : min: 0.0010 cd/m2, max: 1000 cd/m2
  31. Maximum Content Light Level : 1001 cd/m2
  32. Maximum Frame-Average Light Level : 417 cd/m2

  33. Audio #1
  34. ID : 2
  35. ID in the original source medium : 4352 (0x1100)
  36. Format : DTS XLL
  37. Format/Info : Digital Theater Systems
  38. Commercial name : DTS-HD Master Audio
  39. Codec ID : A_DTS
  40. Duration : 1 h 47 min
  41. Bit rate mode : Variable
  42. Bit rate : 3 417 kb/s
  43. Channel(s) : 6 channels
  44. Channel layout : C L R Ls Rs LFE
  45. Sampling rate : 48.0 kHz
  46. Frame rate : 93.750 FPS (512 SPF)
  47. Bit depth : 24 bits
  48. Compression mode : Lossless
  49. Stream size : 2.58 GiB (19%)
  50. Title : DTS-HD MA 5.1
  51. Language : English
  52. Default : Yes
  53. Forced : No
  54. Original source medium : Blu-ray

  55. Audio #2
  56. ID : 3
  57. Format : E-AC-3
  58. Format/Info : Enhanced AC-3
  59. Commercial name : Dolby Digital Plus
  60. Codec ID : A_EAC3
  61. Duration : 1 h 47 min
  62. Bit rate mode : Constant
  63. Bit rate : 256 kb/s
  64. Channel(s) : 6 channels
  65. Channel layout : L R C LFE Ls Rs
  66. Sampling rate : 48.0 kHz
  67. Frame rate : 31.250 FPS (1536 SPF)
  68. Compression mode : Lossy
  69. Stream size : 198 MiB (1%)
  70. Title : DDP 5.1
  71. Language : English
  72. Service kind : Complete Main
  73. Default : No
  74. Forced : No

  75. Text #1
  76. ID : 4
  77. Format : UTF-8
  78. Codec ID : S_TEXT/UTF8
  79. Codec ID/Info : UTF-8 Plain Text
  80. Duration : 1 h 35 min
  81. Bit rate : 50 b/s
  82. Count of elements : 1237
  83. Stream size : 35.6 KiB (0%)
  84. Title : SRT
  85. Language : English
  86. Default : Yes
  87. Forced : No

  88. Text #2
  89. ID : 5
  90. ID in the original source medium : 4608 (0x1200)
  91. Format : PGS
  92. Muxing mode : zlib
  93. Codec ID : S_HDMV/PGS
  94. Codec ID/Info : Picture based subtitle format used on BDs/HD-DVDs
  95. Duration : 1 h 46 min
  96. Bit rate : 32.9 kb/s
  97. Count of elements : 2424
  98. Stream size : 25.0 MiB (0%)
  99. Language : English
  100. Default : No
  101. Forced : No
  102. Original source medium : Blu-ray

  103. Text #3
  104. ID : 6
  105. ID in the original source medium : 4609 (0x1201)
  106. Format : PGS
  107. Muxing mode : zlib
  108. Codec ID : S_HDMV/PGS
  109. Codec ID/Info : Picture based subtitle format used on BDs/HD-DVDs
  110. Duration : 1 h 36 min
  111. Bit rate : 25.3 kb/s
  112. Count of elements : 1852
  113. Stream size : 17.4 MiB (0%)
  114. Language : Spanish
  115. Default : No
  116. Forced : No
  117. Original source medium : Blu-ray

  118. Menu
  119. 00:00:00.000 : en:Chapter 01
  120. 00:08:13.576 : en:Chapter 02
  121. 00:12:56.317 : en:Chapter 03
  122. 00:17:59.620 : en:Chapter 04
  123. 00:25:29.069 : en:Chapter 05
  124. 00:32:38.873 : en:Chapter 06
  125. 00:39:15.895 : en:Chapter 07
  126. 00:44:43.389 : en:Chapter 08
  127. 00:52:44.411 : en:Chapter 09
  128. 00:58:47.106 : en:Chapter 10
  129. 01:04:14.141 : en:Chapter 11
  130. 01:10:30.226 : en:Chapter 12
  131. 01:19:17.502 : en:Chapter 13
  132. 01:24:23.558 : en:Chapter 14
  133. 01:31:42.830 : en:Chapter 15
  134. 01:35:08.035 : en:Chapter 16
复制代码

捍卫生死线(台) / 复制品 / 复生人 / 复制人/克隆人4K.Replicas.2018.2160p.WEB-DL.x265.10bit.HDR.DTS-HD.MA.5.1-4K电影下载

克隆人4K.Replicas.2018.2160p.WEB-DL.x265.10bit.HDR.DTS-HD.MA.5.1【4K HDR 13.78 GB】
[Hao4K]克隆人4K.Replicas.2018.2160p.WEB-DL.x265.10bit.HDR.DTS-HD.MA.5.1-SWTYBLZ.torrent (69.47 KB, 售价: 2 K币)

克隆人4K电影中文字幕下载 感谢K友@苏默金武分享的字幕
https://www.hao4k.cn/thread-55947-1-1.html
分享到:  QQ好友和群QQ好友和群
回复

使用道具 举报

全部回复76

沙发
aizezi 发表于 2021-4-3 11:45:00

aizezi 沙发

2021-4-3 11:45:00

感谢分享,厉害了厉害
回复 支持 反对

使用道具 举报

板凳
gd-man 发表于 2021-4-3 12:11:13

gd-man 板凳

2021-4-3 12:11:13

现在怎么文件都十几G
回复 支持 反对

使用道具 举报

地板
bbgrnnji 发表于 2021-4-3 12:44:31

bbgrnnji 地板

2021-4-3 12:44:31

gd-man 发表于 2021-4-3 12:11
现在怎么文件都十几G

小的都是WEB-DL版
回复 支持 反对

使用道具 举报

5#
evan_mky0318 发表于 2021-4-3 12:44:38

evan_mky0318 5#

2021-4-3 12:44:38

好东西要分享,谢谢分享
回复 支持 反对

使用道具 举报

6#
bbgrnnji 发表于 2021-4-3 12:45:21

bbgrnnji 6#

2021-4-3 12:45:21

我等的这么多好片子一个都没有,但还是要谢谢楼主
回复 支持 反对

使用道具 举报

7#
andywjhh 发表于 2021-4-3 13:42:42

andywjhh 7#

2021-4-3 13:42:42

好资源很给力
回复 支持 反对

使用道具 举报

8#
dk30129 发表于 2021-4-3 15:55:11

dk30129 8#

2021-4-3 15:55:11

谢谢分享,顶你!!!
回复 支持 反对

使用道具 举报

9#
qhy888999 发表于 2021-4-3 17:28:46

qhy888999 9#

2021-4-3 17:28:46

bbgrnnji 发表于 2021-4-3 12:44
小的都是WEB-DL版

效果到底和大文件的差多少
回复 支持 反对

使用道具 举报

10#
蜡笔小亮 发表于 2021-4-3 17:31:54

蜡笔小亮 10#

2021-4-3 17:31:54

qhy888999 发表于 2021-4-3 17:28
效果到底和大文件的差多少

没有对比就 没有伤害
回复 支持 反对

使用道具 举报

11#
d370216774 发表于 2021-4-3 18:41:17

d370216774 11#

2021-4-3 18:41:17

谢谢 分享 字幕出的真快!
回复 支持 反对

使用道具 举报

12#
ywx9999 发表于 2021-4-3 20:04:40

ywx9999 12#

2021-4-3 20:04:40

谢谢分享
回复 支持 反对

使用道具 举报

13#
ALORN2021 发表于 2021-4-3 20:46:34 Hao4K手机版

ALORN2021 13#

2021-4-3 20:46:34

隔壁的 哥斯拉金刚 关闭,是不能下了吗?
回复 支持 反对

使用道具 举报

14#
世爵39 发表于 2021-4-3 21:09:01

世爵39 14#

2021-4-3 21:09:01

现在怎么文件都十几G
回复 支持 反对

使用道具 举报

15#
世爵39 发表于 2021-4-3 21:09:45

世爵39 15#

2021-4-3 21:09:45

这部片好似看过
回复 支持 反对

使用道具 举报

16#
wang4977 发表于 2021-4-3 21:14:39

wang4977 16#

2021-4-3 21:14:39

科幻题材的影片,三年前,多谢。
回复 支持 反对

使用道具 举报

17#
yale 发表于 2021-4-3 22:44:18

yale 17#

2021-4-3 22:44:18

谢谢分享
回复 支持 反对

使用道具 举报

18#
zhangnuannuan 发表于 2021-4-3 23:50:37

zhangnuannuan 18#

2021-4-3 23:50:37

谢谢分享,顶你!!!
回复 支持 反对

使用道具 举报

   发表回复

您需要登录后才可以回帖 登录 | 立即注册

返回列表 本版积分规则

  • 在线客服

  • 返回顶部