微博 微信

Hao4K影音

电影频道
电影封面:
片  名: 无依之地4K
电影分类: 剧情 
国  家: 美国 
年  代: 2020年
分 辨 率: 4K(3840x2160)
电影格式: MKV|REMUX 
画质标准: HDR 
音质编码: Dolby Digital Plus Audio 
电影声道: 5.1声道 
帧数/FPS: 23.976 帧
电影语言: 英文原版 
资源大小: 12.04 GB
导  演: 赵婷
豆瓣评分: 8.3 分
中文字幕: /thread-56254-1-1.html
剧情简介: 基于Jessica Bruder所著书籍《Nomadland: Surviving America in the Twenty-First Century》,讲述一个60多岁的女人在经济大萧条中失去了一切,她作为一个居住在货车里的现代游牧民,开始了穿越美国西部的旅程。
游牧人生(台) / 浪迹天地(港) / 游牧之地/无依之地4K.Nomadland.2020.2160p.DSNP.WEBRip.x265.10bit.HDR.DDP5.1-4k电影信息
  1. Video
  2. ID : 1
  3. Format : HEVC
  4. Format/Info : High Efficiency Video Coding
  5. Format profile : Main 10@L5@High
  6. Codec ID : V_MPEGH/ISO/HEVC
  7. Duration : 1 h 47 min
  8. Bit rate : 15.8 Mb/s
  9. Width : 3 840 pixels
  10. Height : 2 160 pixels
  11. Display aspect ratio : 16:9
  12. Frame rate mode : Constant
  13. Frame rate : 23.976 (24000/1001) FPS
  14. Color space : YUV
  15. Chroma subsampling : 4:2:0
  16. Bit depth : 10 bits
  17. Bits/(Pixel*Frame) : 0.079
  18. Stream size : 11.8 GiB (98%)
  19. Default : Yes
  20. Forced : No
  21. Color range : Limited
  22. Color primaries : BT.2020
  23. Transfer characteristics : PQ
  24. Matrix coefficients : BT.2020 non-constant

  25. Audio
  26. ID : 2
  27. Format : E-AC-3
  28. Format/Info : Enhanced AC-3
  29. Commercial name : Dolby Digital Plus
  30. Codec ID : A_EAC3
  31. Duration : 1 h 47 min
  32. Bit rate mode : Constant
  33. Bit rate : 256 kb/s
  34. Channel(s) : 6 channels
  35. Channel layout : L R C LFE Ls Rs
  36. Sampling rate : 48.0 kHz
  37. Frame rate : 31.250 FPS (1536 SPF)
  38. Compression mode : Lossy
  39. Stream size : 197 MiB (2%)
  40. Title : English
  41. Language : English
  42. Service kind : Complete Main
  43. Default : No
  44. Forced : No

  45. Text #1
  46. ID : 3
  47. Format : UTF-8
  48. Codec ID : S_TEXT/UTF8
  49. Codec ID/Info : UTF-8 Plain Text
  50. Duration : 1 h 46 min
  51. Bit rate : 51 b/s
  52. Count of elements : 1277
  53. Stream size : 40.3 KiB (0%)
  54. Title : French Canadian
  55. Language : French
  56. Default : No
  57. Forced : No

  58. Text #2
  59. ID : 4
  60. Format : UTF-8
  61. Codec ID : S_TEXT/UTF8
  62. Codec ID/Info : UTF-8 Plain Text
  63. Duration : 1 h 46 min
  64. Bit rate : 42 b/s
  65. Count of elements : 946
  66. Stream size : 33.4 KiB (0%)
  67. Title : Danish
  68. Language : Danish
  69. Default : No
  70. Forced : No

  71. Text #3
  72. ID : 5
  73. Format : UTF-8
  74. Codec ID : S_TEXT/UTF8
  75. Codec ID/Info : UTF-8 Plain Text
  76. Duration : 1 h 46 min
  77. Bit rate : 43 b/s
  78. Count of elements : 1135
  79. Stream size : 34.2 KiB (0%)
  80. Title : German
  81. Language : German
  82. Default : No
  83. Forced : No

  84. Text #4
  85. ID : 6
  86. Format : UTF-8
  87. Codec ID : S_TEXT/UTF8
  88. Codec ID/Info : UTF-8 Plain Text
  89. Duration : 1 h 46 min
  90. Bit rate : 58 b/s
  91. Count of elements : 1594
  92. Stream size : 45.5 KiB (0%)
  93. Title : English [SDH]
  94. Language : English
  95. Default : No
  96. Forced : No

  97. Text #5
  98. ID : 7
  99. Format : UTF-8
  100. Codec ID : S_TEXT/UTF8
  101. Codec ID/Info : UTF-8 Plain Text
  102. Duration : 1 h 45 min
  103. Bit rate : 53 b/s
  104. Count of elements : 1414
  105. Stream size : 41.1 KiB (0%)
  106. Title : English
  107. Language : English
  108. Default : No
  109. Forced : No

  110. Text #6
  111. ID : 8
  112. Format : UTF-8
  113. Codec ID : S_TEXT/UTF8
  114. Codec ID/Info : UTF-8 Plain Text
  115. Duration : 1 h 46 min
  116. Bit rate : 46 b/s
  117. Count of elements : 1277
  118. Stream size : 36.0 KiB (0%)
  119. Title : European Spanish
  120. Language : Spanish
  121. Default : No
  122. Forced : No

  123. Text #7
  124. ID : 9
  125. Format : UTF-8
  126. Codec ID : S_TEXT/UTF8
  127. Codec ID/Info : UTF-8 Plain Text
  128. Duration : 1 h 42 min
  129. Bit rate : 49 b/s
  130. Count of elements : 1276
  131. Stream size : 37.5 KiB (0%)
  132. Title : Finnish
  133. Language : Finnish
  134. Default : No
  135. Forced : No

  136. Text #8
  137. ID : 10
  138. Format : UTF-8
  139. Codec ID : S_TEXT/UTF8
  140. Codec ID/Info : UTF-8 Plain Text
  141. Duration : 1 h 46 min
  142. Bit rate : 41 b/s
  143. Count of elements : 1068
  144. Stream size : 32.0 KiB (0%)
  145. Title : French
  146. Language : French
  147. Default : No
  148. Forced : No

  149. Text #9
  150. ID : 11
  151. Format : UTF-8
  152. Codec ID : S_TEXT/UTF8
  153. Codec ID/Info : UTF-8 Plain Text
  154. Duration : 1 h 46 min
  155. Bit rate : 47 b/s
  156. Count of elements : 1270
  157. Stream size : 36.8 KiB (0%)
  158. Title : Italian
  159. Language : Italian
  160. Default : No
  161. Forced : No

  162. Text #10
  163. ID : 12
  164. Format : UTF-8
  165. Codec ID : S_TEXT/UTF8
  166. Codec ID/Info : UTF-8 Plain Text
  167. Duration : 1 h 46 min
  168. Bit rate : 38 b/s
  169. Count of elements : 981
  170. Stream size : 30.4 KiB (0%)
  171. Title : Dutch
  172. Language : Dutch
  173. Default : No
  174. Forced : No

  175. Text #11
  176. ID : 13
  177. Format : UTF-8
  178. Codec ID : S_TEXT/UTF8
  179. Codec ID/Info : UTF-8 Plain Text
  180. Duration : 1 h 46 min
  181. Bit rate : 42 b/s
  182. Count of elements : 1268
  183. Stream size : 32.8 KiB (0%)
  184. Title : Norwegian
  185. Language : Norwegian
  186. Default : No
  187. Forced : No

  188. Text #12
  189. ID : 14
  190. Format : UTF-8
  191. Codec ID : S_TEXT/UTF8
  192. Codec ID/Info : UTF-8 Plain Text
  193. Duration : 1 h 46 min
  194. Bit rate : 45 b/s
  195. Count of elements : 1239
  196. Stream size : 35.5 KiB (0%)
  197. Title : Portuguese
  198. Language : Portuguese
  199. Default : No
  200. Forced : No

  201. Text #13
  202. ID : 15
  203. Format : UTF-8
  204. Codec ID : S_TEXT/UTF8
  205. Codec ID/Info : UTF-8 Plain Text
  206. Duration : 1 h 46 min
  207. Bit rate : 35 b/s
  208. Count of elements : 941
  209. Stream size : 28.1 KiB (0%)
  210. Title : Swedish
  211. Language : Swedish
  212. Default : No
  213. Forced : No
复制代码

游牧人生(台) / 浪迹天地(港) / 游牧之地/无依之地4K.Nomadland.2020.2160p.DSNP.WEBRip.x265.10bit.HDR.DDP5.1-4K电影下载

无依之地4K.Nomadland.2020.2160p.DSNP.WEBRip.x265.10bit.HDR.DDP5.1【4K HDR 12.04 GB】
[Hao4K]无依之地4K.Nomadland.2020.2160p.DSNP.WEBRip.x265.10bit.HDR.DDP5.1-MZABI.torrent (60.85 KB, 售价: 3 K币)
回复

使用道具 举报

全部回复1

sectreearl 发表于 2021-4-13 15:02:55

sectreearl 沙发

2021-4-13 15:02:55

沙发来一个
回复 支持 1 反对 0

使用道具 举报

   发表回复

您需要登录后才可以回帖 登录 | 立即注册

返回列表 本版积分规则

  • 在线客服

  • 返回顶部