微博 微信

Hao4K影音

电影频道
电影封面:
片  名: Dorys.Reef.Cam 4K
电影分类: 冒险 动画 
国  家: 美国 
年  代: 2020年
分 辨 率: 4K(3840x2160)
电影格式: MKV|REMUX 
画质标准: HDR 
音质编码: Dolby Digital Plus Audio 
电影声道: 5.1声道 
帧数/FPS: 23.976 帧
电影语言: 英文原版 
资源大小: 21.35 GB
导  演: Michal Makarewicz
豆瓣评分:
中文字幕: -
剧情简介: Dive into the waters below and watch the aquatic wildlife from the world of Nemo and Dory.
Dorys.Reef.Cam.4K.2020.2160p.DSNP.WEBRip.x265.10bit.HDR.DDP5.1-4k电影信息
  1. Video
  2. ID : 1
  3. Format : HEVC
  4. Format/Info : High Efficiency Video Coding
  5. Format profile : Main 10@L5@High
  6. HDR format : SMPTE ST 2086, HDR10 compatible
  7. Codec ID : V_MPEGH/ISO/HEVC
  8. Duration : 3 h 1 min
  9. Bit rate : 16.5 Mb/s
  10. Width : 3 840 pixels
  11. Height : 2 160 pixels
  12. Display aspect ratio : 16:9
  13. Frame rate mode : Constant
  14. Frame rate : 23.976 (24000/1001) FPS
  15. Color space : YUV
  16. Chroma subsampling : 4:2:0
  17. Bit depth : 10 bits
  18. Bits/(Pixel*Frame) : 0.083
  19. Stream size : 21.0 GiB (98%)
  20. Default : Yes
  21. Forced : No
  22. Color range : Limited
  23. Color primaries : BT.2020
  24. Transfer characteristics : PQ
  25. Matrix coefficients : BT.2020 non-constant
  26. Mastering display color primaries : BT.2020
  27. Mastering display luminance : min: 0.0000 cd/m2, max: 1000 cd/m2

  28. Audio
  29. ID : 2
  30. Format : E-AC-3
  31. Format/Info : Enhanced AC-3
  32. Commercial name : Dolby Digital Plus
  33. Codec ID : A_EAC3
  34. Duration : 3 h 1 min
  35. Bit rate mode : Constant
  36. Bit rate : 256 kb/s
  37. Channel(s) : 6 channels
  38. Channel layout : L R C LFE Ls Rs
  39. Sampling rate : 48.0 kHz
  40. Frame rate : 31.250 FPS (1536 SPF)
  41. Compression mode : Lossy
  42. Stream size : 333 MiB (2%)
  43. Language : English
  44. Service kind : Complete Main
  45. Default : Yes
  46. Forced : No

  47. Text
  48. ID : 3
  49. Format : UTF-8
  50. Codec ID : S_TEXT/UTF8
  51. Codec ID/Info : UTF-8 Plain Text
  52. Duration : 3 h 1 min
  53. Bit rate : 2 b/s
  54. Count of elements : 248
  55. Stream size : 2.99 KiB (0%)
  56. Title : English (SDH)
  57. Language : English
  58. Default : No
  59. Forced : No
复制代码

Dorys.Reef.Cam.4K.2020.2160p.DSNP.WEBRip.x265.10bit.HDR.DDP5.1-4K电影动画片下载

Dorys.Reef.Cam.4K.2020.2160p.DSNP.WEBRip.x265.10bit.HDR.DDP5.1【4K HDR 21.35GB】
Dorys.Reef.Cam.4K.2020.2160p.DSNP.WEBRip.x265.10bit.HDR.DDP5.1-SWTYBLZ.torrent (54.03 KB, 售价: 2 K币)
回复

使用道具 举报

全部回复51

yale 发表于 2021-4-15 19:42:45

yale 沙发

2021-4-15 19:42:45

谢谢分享
回复 支持 反对

使用道具 举报

lifeimax 发表于 2021-4-15 19:53:33

lifeimax 板凳

2021-4-15 19:53:33


谢谢分享
回复 支持 反对

使用道具 举报

zjjncu 发表于 2021-4-15 22:31:46

zjjncu 地板

2021-4-15 22:31:46

时长3小时的屏保
回复 支持 反对

使用道具 举报

lqsong 发表于 2021-4-15 23:25:38

lqsong 5#

2021-4-15 23:25:38

谢谢分享!!
回复 支持 反对

使用道具 举报

shawn012345 发表于 2021-4-15 23:44:18 Hao4K手机版

shawn012345 6#

2021-4-15 23:44:18

怎么挣金币啊
回复 支持 反对

使用道具 举报

mingming8 发表于 2021-4-16 08:38:30

mingming8 7#

2021-4-16 08:38:30

谢谢共享!!!
回复 支持 反对

使用道具 举报

mgwr 发表于 2021-4-16 09:24:17

mgwr 8#

2021-4-16 09:24:17

谢谢分享。。。
回复 支持 反对

使用道具 举报

dragon_walk 发表于 2021-4-16 10:37:04

dragon_walk 9#

2021-4-16 10:37:04

是屏幕保护电影?
回复 支持 反对

使用道具 举报

添爸 发表于 2021-4-16 10:49:33

添爸 10#

2021-4-16 10:49:33


谢谢分享!!
回复 支持 反对

使用道具 举报

bonna 发表于 2021-4-16 10:55:53

bonna 11#

2021-4-16 10:55:53

WEBRIP?
回复 支持 反对

使用道具 举报

cxd98 发表于 2021-4-16 11:10:03

cxd98 12#

2021-4-16 11:10:03

喜欢这个,谢谢分享!
回复 支持 反对

使用道具 举报

lchlxx 发表于 2021-4-16 11:35:26

lchlxx 13#

2021-4-16 11:35:26

没有语音 跟动态屏保差不多
回复 支持 反对

使用道具 举报

ctawrt 发表于 2021-4-16 13:44:38

ctawrt 14#

2021-4-16 13:44:38



谢谢分享
回复 支持 反对

使用道具 举报

飞飞789456123 发表于 2021-4-16 14:45:25

飞飞789456123 15#

2021-4-16 14:45:25


谢谢分享
回复 支持 反对

使用道具 举报

飞飞789456123 发表于 2021-4-16 14:45:29

飞飞789456123 16#

2021-4-16 14:45:29


谢谢分享
回复 支持 反对

使用道具 举报

飞飞789456123 发表于 2021-4-16 14:45:33

飞飞789456123 17#

2021-4-16 14:45:33


谢谢分享
回复 支持 反对

使用道具 举报

飞飞789456123 发表于 2021-4-16 14:45:38

飞飞789456123 18#

2021-4-16 14:45:38


谢谢分享
回复 支持 反对

使用道具 举报

   发表回复

您需要登录后才可以回帖 登录 | 立即注册

返回列表 本版积分规则

  • 在线客服

  • 返回顶部