微博 微信

Hao4K影音

电影频道
电影封面:
片  名: 信使4K
电影分类: 惊悚 
国  家: 英国 
年  代: 2021年
分 辨 率: 4K(3840x2160)
电影格式: MKV|REMUX 
画质标准: HDR 
音质编码: Dolby Digital Plus Audio 
电影声道: 5.1声道 
帧数/FPS: 23.976 帧
电影语言: 英文原版 
资源大小: 11.61 GB
导  演: 多米尼克·库克
豆瓣评分: 7.5 分
中文字幕: -
剧情简介: 本尼迪克特·康伯巴奇将出演冷战时期的英国“间谍”Greville Wynne,他将主演FilmNation投资的新片《铁皮木》(Ironbark),据悉风格会类似康伯巴奇也出演了的《锅匠,裁缝,士兵,间谍》,改编自Wynne的真实故事:他是一名英国商人,在冷战时期帮助CIA渗透了苏联的核武器项目,他和他的苏联消息源Oleg Penkovsky提供了终结古巴导弹危机的关键情报。该片将由Dominic Cooke(《在切瑟尔海滩上》)执导,他与康伯巴奇已合作过BBC剧集《空王冠》,初版剧本编剧是Tom O’Connor(《王牌保镖》)。
铁幕行动(台) / 情报人员 / 铁皮木 / Ironbark/信使4K.The.Courier.2021.2160p.WEB-DL.x265.10bit.HDR.DDP5.1-4k电影信息
  1. Video
  2. ID : 1
  3. Format : HEVC
  4. Format/Info : High Efficiency Video Coding
  5. Format profile : Main 10@L5@Main
  6. HDR format : SMPTE ST 2086, HDR10 compatible
  7. Codec ID : V_MPEGH/ISO/HEVC
  8. Duration : 1 h 52 min
  9. Bit rate : 14.6 Mb/s
  10. Width : 3 840 pixels
  11. Height : 2 160 pixels
  12. Display aspect ratio : 16:9
  13. Frame rate mode : Constant
  14. Frame rate : 23.976 (24000/1001) FPS
  15. Color space : YUV
  16. Chroma subsampling : 4:2:0 (Type 2)
  17. Bit depth : 10 bits
  18. Bits/(Pixel*Frame) : 0.073
  19. Stream size : 11.4 GiB (98%)
  20. Language : English
  21. Default : Yes
  22. Forced : No
  23. Color range : Limited
  24. Color primaries : BT.2020
  25. Transfer characteristics : PQ
  26. Matrix coefficients : BT.2020 non-constant
  27. Mastering display color primaries : BT.2020
  28. Mastering display luminance : min: 0.0001 cd/m2, max: 1000 cd/m2
  29. Maximum Content Light Level : 863 cd/m2
  30. Maximum Frame-Average Light Level : 115 cd/m2

  31. Audio
  32. ID : 2
  33. Format : E-AC-3
  34. Format/Info : Enhanced AC-3
  35. Commercial name : Dolby Digital Plus
  36. Codec ID : A_EAC3
  37. Duration : 1 h 52 min
  38. Bit rate mode : Constant
  39. Bit rate : 256 kb/s
  40. Channel(s) : 6 channels
  41. Channel layout : L R C LFE Ls Rs
  42. Sampling rate : 48.0 kHz
  43. Frame rate : 31.250 FPS (1536 SPF)
  44. Compression mode : Lossy
  45. Stream size : 205 MiB (2%)
  46. Title : English
  47. Language : English
  48. Service kind : Complete Main
  49. Default : No
  50. Forced : No

  51. Text #1
  52. ID : 3
  53. Format : UTF-8
  54. Codec ID : S_TEXT/UTF8
  55. Codec ID/Info : UTF-8 Plain Text
  56. Duration : 1 h 16 min
  57. Bit rate : 6 b/s
  58. Count of elements : 129
  59. Stream size : 3.56 KiB (0%)
  60. Title : FORCED
  61. Language : English
  62. Default : Yes
  63. Forced : No

  64. Text #2
  65. ID : 4
  66. Format : UTF-8
  67. Codec ID : S_TEXT/UTF8
  68. Codec ID/Info : UTF-8 Plain Text
  69. Duration : 1 h 43 min
  70. Bit rate : 52 b/s
  71. Count of elements : 1247
  72. Stream size : 39.7 KiB (0%)
  73. Language : English
  74. Default : No
  75. Forced : No

  76. Text #3
  77. ID : 5
  78. Format : UTF-8
  79. Codec ID : S_TEXT/UTF8
  80. Codec ID/Info : UTF-8 Plain Text
  81. Duration : 1 h 43 min
  82. Bit rate : 59 b/s
  83. Count of elements : 1351
  84. Stream size : 44.8 KiB (0%)
  85. Language : English
  86. Default : No
  87. Forced : No
复制代码

铁幕行动(台) / 情报人员 / 铁皮木 / Ironbark/信使4K.The.Courier.2021.2160p.WEB-DL.x265.10bit.HDR.DDP5.1-4K电影下载

信使4K.The.Courier.2021.2160p.WEB-DL.x265.10bit.HDR.DDP5.1【4K HDR 11.61GB】
信使4K.The.Courier.2021.2160p.WEB-DL.x265.10bit.HDR.DDP5.1-NOGRP.torrent (58.72 KB, 售价: 2 K币)

信使4K.The.Courier.2020.2160p.AMZN.WEB-DL.x265.10bit.HDR10Plus.DDP5.1【4K HDR 11.79 GB】
[Hao4K]信使4K.The.Courier.2020.2160p.AMZN.WEB-DL.x265.10bit.HDR10Plus.DDP5.1-RUM.torrent (59.63 KB, 售价: 2 K币)

信使中文字幕下载(SRT)
信使4K.The.Courier.2021.2160p.WEB-DL.x265.10bit.HDR.DDP5.1.srt (115.41 KB)
分享到:  QQ好友和群QQ好友和群
回复

使用道具 举报

全部回复166

沙发
普罗米修斯1985 发表于 2021-4-16 21:28:31

普罗米修斯1985 沙发

2021-4-16 21:28:31

感谢领导,多谢分享
回复 支持 反对

使用道具 举报

板凳
like_dick 发表于 2021-4-16 21:43:49

like_dick 板凳

2021-4-16 21:43:49

感谢字幕连影片的发送方式
回复 支持 1 反对 0

使用道具 举报

地板
mouseking007 发表于 2021-4-16 21:53:13

mouseking007 地板

2021-4-16 21:53:13

多谢分享
回复 支持 反对

使用道具 举报

5#
ipo 发表于 2021-4-16 21:57:51

ipo 5#

2021-4-16 21:57:51

怎么说句话还要审查?
回复 支持 反对

使用道具 举报

6#
sonnnnr 发表于 2021-4-16 22:00:43 Hao4K手机版

sonnnnr 6#

2021-4-16 22:00:43

感谢大佬,期待期待
回复 支持 反对

使用道具 举报

7#
kenny2006 发表于 2021-4-16 22:05:47

kenny2006 7#

2021-4-16 22:05:47

奇异博士演间谍!
回复 支持 反对

使用道具 举报

8#
yale 发表于 2021-4-16 22:36:25

yale 8#

2021-4-16 22:36:25

谢谢分享
回复 支持 反对

使用道具 举报

9#
业余观影员 发表于 2021-4-16 22:59:14

业余观影员 9#

2021-4-16 22:59:14

谢谢大哥
回复 支持 反对

使用道具 举报

10#
jinwen9420 发表于 2021-4-16 23:15:58

jinwen9420 10#

2021-4-16 23:15:58

喜欢二战题材的谍战片!
回复 支持 反对

使用道具 举报

11#
li_yuebin0525 发表于 2021-4-17 03:57:56

li_yuebin0525 11#

2021-4-17 03:57:56

字幕是英文的,并不是中文的。
回复 支持 1 反对 1

使用道具 举报

12#
1273191449 发表于 2021-4-17 08:04:24

1273191449 12#

2021-4-17 08:04:24

谢谢分享
回复 支持 反对

使用道具 举报

13#
liuxingyu764 发表于 2021-4-17 08:59:55

liuxingyu764 13#

2021-4-17 08:59:55

谢谢分享,马上去下
回复 支持 反对

使用道具 举报

14#
ipo 发表于 2021-4-17 09:16:25

ipo 14#

2021-4-17 09:16:25

谢谢分享,字幕打不开
回复 支持 反对

使用道具 举报

15#
chizaoyaowan 发表于 2021-4-17 09:20:40 Hao4K手机版

chizaoyaowan 15#

2021-4-17 09:20:40

谢谢分享,马上去下
回复 支持 反对

使用道具 举报

16#
ppcren 发表于 2021-4-17 09:20:42

ppcren 16#

2021-4-17 09:20:42

是福卷演的吗
回复 支持 反对

使用道具 举报

17#
ipo 发表于 2021-4-17 09:25:50

ipo 17#

2021-4-17 09:25:50

没有中文字幕
回复 支持 反对

使用道具 举报

18#
shaozia 发表于 2021-4-17 09:47:49

shaozia 18#

2021-4-17 09:47:49

谢谢分享
回复 支持 反对

使用道具 举报

   发表回复

您需要登录后才可以回帖 登录 | 立即注册

返回列表 本版积分规则

  • 在线客服

  • 返回顶部