微博 微信

Hao4K影音

电影频道
电影封面:
片  名: 我仍然相信4k
电影分类: 剧情 爱情片 
国  家: 美国 
年  代: 2020年
分 辨 率: 4K(3840x2160)
电影格式: MKV|REMUX 
画质标准: HDR 
音质编码: DTS-HD Master Audio 
电影声道: 7.1声道 
帧数/FPS: 23.976 帧
电影语言: 英文原版 
资源大小: 19.51 GB
导  演: 安德鲁·欧文 / 乔恩·欧文
豆瓣评分: 6.6 分
中文字幕: -
剧情简介: 讲述了基督教音乐明星杰里米·坎普的真实生活故事和他爱与失去的旅程,这似乎证明了永远都有希望。
依然相信(台) / 信念依存/我仍然相信4k I.Still.Believe.2020.2160p.AMZN.WEB-DL.x265.10bit.HDR10Plus.DTS-HD.MA.TrueHD.7.1.Atmos电影信息
  1. Video
  2. ID : 1
  3. Format : HEVC
  4. Format/Info : High Efficiency Video Coding
  5. Format profile : Main 10@L5@Main
  6. HDR format : SMPTE ST 2094 App 4, Version 1, HDR10+ Profile B compatible
  7. Codec ID : V_MPEGH/ISO/HEVC
  8. Duration : 1 h 56 min
  9. Bit rate : 14.9 Mb/s
  10. Width : 3 840 pixels
  11. Height : 1 600 pixels
  12. Display aspect ratio : 2.40:1
  13. Frame rate mode : Constant
  14. Frame rate : 23.976 (24000/1001) FPS
  15. Color space : YUV
  16. Chroma subsampling : 4:2:0
  17. Bit depth : 10 bits
  18. Bits/(Pixel*Frame) : 0.101
  19. Stream size : 12.2 GiB (62%)
  20. Default : Yes
  21. Forced : No
  22. Color range : Limited
  23. Color primaries : BT.2020
  24. Transfer characteristics : PQ
  25. Matrix coefficients : BT.2020 non-constant
  26. Mastering display color primaries : Display P3
  27. Mastering display luminance : min: 0.0050 cd/m2, max: 1000 cd/m2
  28. Maximum Content Light Level : 811 cd/m2
  29. Maximum Frame-Average Light Level : 174 cd/m2

  30. Audio #1
  31. ID : 2
  32. Format : MLP FBA 16-ch
  33. Format/Info : Meridian Lossless Packing FBA with 16-channel presentation
  34. Commercial name : Dolby TrueHD with Dolby Atmos
  35. Codec ID : A_TRUEHD
  36. Duration : 1 h 56 min
  37. Bit rate mode : Variable
  38. Bit rate : 3 943 kb/s
  39. Maximum bit rate : 6 753 kb/s
  40. Channel(s) : 8 channels
  41. Channel layout : L R C LFE Ls Rs Lb Rb
  42. Sampling rate : 48.0 kHz
  43. Frame rate : 1 200.000 FPS (40 SPF)
  44. Compression mode : Lossless
  45. Delay relative to video : 5 s 960 ms
  46. Stream size : 3.21 GiB (16%)
  47. Title : TrueHD 7.1 Atmos
  48. Language : English
  49. Default : Yes
  50. Forced : No
  51. Number of dynamic objects : 11
  52. Bed channel count : 1 channel
  53. Bed channel configuration : LFE

  54. Audio #2
  55. ID : 3
  56. Format : DTS XLL
  57. Format/Info : Digital Theater Systems
  58. Commercial name : DTS-HD Master Audio
  59. Codec ID : A_DTS
  60. Duration : 1 h 56 min
  61. Bit rate mode : Variable
  62. Bit rate : 3 932 kb/s
  63. Channel(s) : 8 channels
  64. Channel layout : C L R LFE Lb Rb Lss Rss
  65. Sampling rate : 48.0 kHz
  66. Frame rate : 93.750 FPS (512 SPF)
  67. Bit depth : 24 bits
  68. Compression mode : Lossless
  69. Delay relative to video : 5 s 960 ms
  70. Stream size : 3.20 GiB (16%)
  71. Title : DTS-HD MA 7.1
  72. Language : English
  73. Default : No
  74. Forced : No

  75. Audio #3
  76. ID : 4
  77. Format : AC-3
  78. Format/Info : Audio Coding 3
  79. Commercial name : Dolby Digital
  80. Codec ID : A_AC3
  81. Duration : 1 h 56 min
  82. Bit rate mode : Constant
  83. Bit rate : 448 kb/s
  84. Channel(s) : 6 channels
  85. Channel layout : L R C LFE Ls Rs
  86. Sampling rate : 48.0 kHz
  87. Frame rate : 31.250 FPS (1536 SPF)
  88. Compression mode : Lossy
  89. Delay relative to video : 5 s 960 ms
  90. Stream size : 373 MiB (2%)
  91. Title : DD 5.1
  92. Language : English
  93. Service kind : Complete Main
  94. Default : No
  95. Forced : No

  96. Audio #4
  97. ID : 5
  98. Format : E-AC-3
  99. Format/Info : Enhanced AC-3
  100. Commercial name : Dolby Digital Plus
  101. Codec ID : A_EAC3
  102. Duration : 1 h 56 min
  103. Bit rate mode : Constant
  104. Bit rate : 640 kb/s
  105. Channel(s) : 6 channels
  106. Channel layout : L R C LFE Ls Rs
  107. Sampling rate : 48.0 kHz
  108. Frame rate : 31.250 FPS (1536 SPF)
  109. Compression mode : Lossy
  110. Stream size : 534 MiB (3%)
  111. Title : DDP 5.1 Atmos
  112. Language : English
  113. Service kind : Complete Main
  114. Default : No
  115. Forced : No
复制代码


依然相信(台) / 信念依存/我仍然相信4k I.Still.Believe.2020.2160p.AMZN.WEB-DL.x265.10bit.HDR10Plus.DTS-HD.MA.TrueHD.7.1.Atmos电影下载

我仍然相信4k I.Still.Believe.2020.2160p.AMZN.WEB-DL.x265.10bit.HDR10Plus.DTS-HD.MA.TrueHD.7.1.Atmos【19.51 GB】
[Hao4k]我仍然相信4k I.Still.Believe.2020.2160p.AMZN.WEB-DL.x265.10bit.HDR10Plus..torrent (98.28 KB)
回复

使用道具 举报

全部回复19

yangly 发表于 2021-5-19 09:49:47

yangly 2

2021-5-19 09:49:47

谢谢分享
回复 支持 反对

使用道具 举报

ywf6168 发表于 2021-5-19 09:50:13 Hao4K手机版

ywf6168 3

2021-5-19 09:50:13

感谢楼主分享
回复 支持 反对

使用道具 举报

michael555 发表于 2021-5-19 10:45:31

michael555 4

2021-5-19 10:45:31


感谢楼主分享
回复 支持 反对

使用道具 举报

dvd752 发表于 2021-5-19 13:28:41

dvd752 5

2021-5-19 13:28:41

谢谢分享。
回复 支持 反对

使用道具 举报

dragon_walk 发表于 2021-5-19 14:10:43

dragon_walk 6

2021-5-19 14:10:43

免费好片,多谢分享
回复 支持 反对

使用道具 举报

月光麦田 发表于 2021-5-19 18:01:23

月光麦田 7

2021-5-19 18:01:23

谢谢分享
回复 支持 反对

使用道具 举报

791221118 发表于 2021-5-19 18:04:58

791221118 8

2021-5-19 18:04:58

谢谢分享
回复 支持 反对

使用道具 举报

jonva 发表于 2021-5-19 19:05:42

jonva 9

2021-5-19 19:05:42

谢谢分享
回复 支持 1 反对 0

使用道具 举报

13581605557 发表于 2021-5-19 22:53:13

13581605557 10

2021-5-19 22:53:13

感谢分享,谢谢!
回复 支持 反对

使用道具 举报

xxw8888 发表于 2021-5-20 00:50:26 Hao4K手机版

xxw8888 11

2021-5-20 00:50:26

多谢分享
回复 支持 反对

使用道具 举报

dyczw 发表于 2021-5-20 06:27:48

dyczw 12

2021-5-20 06:27:48

感谢分享,辛苦了
回复 支持 反对

使用道具 举报

月光麦田 发表于 2021-5-20 19:32:30

月光麦田 13

2021-5-20 19:32:30

谢谢分享
回复 支持 反对

使用道具 举报

thp181200 发表于 2021-5-21 14:15:36

thp181200 14

2021-5-21 14:15:36

谢谢分享!
回复 支持 反对

使用道具 举报

cdyangjun2019 发表于 2021-5-21 16:04:48

cdyangjun2019 15

2021-5-21 16:04:48

谢谢楼主分享好电影
回复 支持 反对

使用道具 举报

jn_liuchong 发表于 2021-5-22 06:31:40

jn_liuchong 16

2021-5-22 06:31:40

这个还是不错
回复 支持 反对

使用道具 举报

tubin0105 发表于 2021-5-23 16:00:43 Hao4K手机版

tubin0105 17

2021-5-23 16:00:43

感谢楼主分享
回复 支持 反对

使用道具 举报

心爱 发表于 2021-5-26 19:11:14

心爱 18

2021-5-26 19:11:14


谢谢楼主分享好电影
回复 支持 反对

使用道具 举报

   发表回复

您需要登录后才可以回帖 登录 | 立即注册

返回列表 本版积分规则

关闭

站内通知上一条 /1 下一条

  • 在线客服

  • 返回顶部