微博 微信

Hao4K影音

电影频道
电影封面:
片  名: Christmas Matchmakers 4k
电影分类: 其他 
国  家: 美国 
年  代: 2019年
分 辨 率: 4K(3840x2160)
电影格式: MKV|REMUX 
画质标准: SDR 
音质编码: Dolby Digital Plus Audio 
电影声道: 其他 
帧数/FPS: 23.976 帧
电影语言: 英文原版 
资源大小: 8.47 GB
导  演: David DeCoteau
豆瓣评分:
中文字幕: -
剧情简介: -
Christmas.Matchmakers.2019.2160p.WEB-DL.x265.8bit.SDR.DDP5.1.4k电影信息
  1. Video
  2. ID : 1
  3. Format : HEVC
  4. Format/Info : High Efficiency Video Coding
  5. Format profile : Main@L5@High
  6. Codec ID : V_MPEGH/ISO/HEVC
  7. Duration : 1 h 27 min
  8. Bit rate : 13.2 Mb/s
  9. Width : 3 840 pixels
  10. Height : 2 160 pixels
  11. Display aspect ratio : 16:9
  12. Frame rate mode : Constant
  13. Frame rate : 23.976 (24000/1001) FPS
  14. Color space : YUV
  15. Chroma subsampling : 4:2:0
  16. Bit depth : 8 bits
  17. Bits/(Pixel*Frame) : 0.067
  18. Stream size : 8.08 GiB (95%)
  19. Default : Yes
  20. Forced : No
  21. Color range : Limited
  22. Color primaries : BT.709
  23. Transfer characteristics : BT.709
  24. Matrix coefficients : BT.709

  25. Audio
  26. ID : 2
  27. Format : E-AC-3
  28. Format/Info : Enhanced AC-3
  29. Commercial name : Dolby Digital Plus
  30. Codec ID : A_EAC3
  31. Duration : 1 h 27 min
  32. Bit rate mode : Constant
  33. Bit rate : 640 kb/s
  34. Channel(s) : 6 channels
  35. Channel layout : L R C LFE Ls Rs
  36. Sampling rate : 48.0 kHz
  37. Frame rate : 31.250 FPS (1536 SPF)
  38. Compression mode : Lossy
  39. Stream size : 400 MiB (5%)
  40. Language : English
  41. Service kind : Complete Main
  42. Default : Yes
  43. Forced : No

  44. Text
  45. ID : 3
  46. Format : UTF-8
  47. Codec ID : S_TEXT/UTF8
  48. Codec ID/Info : UTF-8 Plain Text
  49. Duration : 1 h 25 min
  50. Bit rate : 87 b/s
  51. Count of elements : 1628
  52. Stream size : 54.7 KiB (0%)
  53. Title : English
  54. Language : English
  55. Default : No
  56. Forced : No
复制代码


Christmas.Matchmakers.2019.2160p.WEB-DL.x265.8bit.SDR.DDP5.1.4k电影下载

Christmas.Matchmakers.2019.2160p.WEB-DL.x265.8bit.SDR.DDP5.1【8.47GB】
Christmas.Matchmakers.2019.2160p.WEB-DL.x265.8bit.SDR.DDP5.1-SWTYBLZ.torrent (43.01 KB)
回复

使用道具 举报

全部回复5

dyczw 发表于 2021-5-28 06:36:32

dyczw 2

2021-5-28 06:36:32

感谢分享,辛苦了
回复 支持 反对

使用道具 举报

dragon_walk 发表于 2021-5-28 09:55:18

dragon_walk 3

2021-5-28 09:55:18

谢谢分享。下载看看
回复 支持 反对

使用道具 举报

qzy4057 发表于 2021-6-2 11:21:51

qzy4057 4

2021-6-2 11:21:51

谢谢分享。下载看看
回复 支持 反对

使用道具 举报

mo814876560 发表于 2021-6-3 08:34:52

mo814876560 5

2021-6-3 08:34:52

谢谢楼主,辛苦了!
回复 支持 反对

使用道具 举报

yangly 发表于 2021-6-5 12:41:39

yangly 6

2021-6-5 12:41:39


谢谢楼主,辛苦了!
回复 支持 反对

使用道具 举报

   发表回复

您需要登录后才可以回帖 登录 | 立即注册

返回列表 本版积分规则

关闭

站内通知上一条 /1 下一条

  • 在线客服

  • 返回顶部