微博 微信

Hao4K影音

电影频道
电影封面:
片  名: Changing.the.Game
电影分类: 纪录片 
国  家: 美国 
年  代: 2019年
分 辨 率: 4K(3840x2160)
电影格式: MKV|REMUX 
画质标准: 其他 
音质编码: Dolby Digital Plus Audio 
电影声道: 其他 
帧数/FPS: 23.976 帧
电影语言: 英文原版 
资源大小: 9.30 GB
导  演: Michael Barnett
豆瓣评分:
中文字幕: -
剧情简介:  Filmmaker Michael Barnett’s richly textured documentary illuminates an issue both timely and topical, but at its core captures the warm-hearted, courageous characters living within it. Three resilient transgender high school athletes across the United States fight for their sports titles and battle voices of harassment in their pursuit to compete as their authentic gender. We enter the lives of Sarah Rose Huckman, a spunky skier and teen policymaker in New Hampshire, Andraya Yearwood, a fierce track star slaying her competition, and at the center of our story is Mack Beggs, a two-time Texas State Champion wrestler who made headlines for dominating women’s wrestling while pushing to wrestle boys.
  Caught in the center of a national debate on trans civil rights, these athletes channel the endurance they’ve learned from their sports into their ever more public battles. Those of us who remember feeling helpless against the jeers and aggression of high school bullies will marvel at the perseverance each of these dedicated teens show in the face of vitriol from parents and pundits alike, developing an emotional maturity far beyond anything their young age should require. Still, a network of support emerges to bolster their resolve, and despite the extreme anger of their opposition, each of these inspirational young forces of nature triumphantly overcomes hurdle after hurdle in their individual journey to live as their true selves.
Changing.the.Game.2019.2160p.WEB.h265.4k纪录片信息
  1. Video
  2. ID : 1
  3. Format : HEVC
  4. Format/Info : High Efficiency Video Coding
  5. Format profile : Main 10@L5.1@Main
  6. Codec ID : V_MPEGH/ISO/HEVC
  7. Duration : 1 h 31 min
  8. Bit rate : 14.3 Mb/s
  9. Width : 3 840 pixels
  10. Height : 2 160 pixels
  11. Display aspect ratio : 16:9
  12. Frame rate mode : Constant
  13. Frame rate : 23.976 (24000/1001) FPS
  14. Color space : YUV
  15. Chroma subsampling : 4:2:0
  16. Bit depth : 10 bits
  17. Bits/(Pixel*Frame) : 0.072
  18. Stream size : 9.13 GiB (98%)
  19. Default : Yes
  20. Forced : No

  21. Audio
  22. ID : 2
  23. Format : E-AC-3
  24. Format/Info : Enhanced AC-3
  25. Commercial name : Dolby Digital Plus
  26. Codec ID : A_EAC3
  27. Duration : 1 h 31 min
  28. Bit rate mode : Constant
  29. Bit rate : 256 kb/s
  30. Channel(s) : 6 channels
  31. Channel layout : L R C LFE Ls Rs
  32. Sampling rate : 48.0 kHz
  33. Frame rate : 31.250 FPS (1536 SPF)
  34. Compression mode : Lossy
  35. Stream size : 167 MiB (2%)
  36. Title : English
  37. Language : English
  38. Service kind : Complete Main
  39. Default : Yes
  40. Forced : No

  41. Text #1
  42. ID : 3
  43. Format : UTF-8
  44. Codec ID : S_TEXT/UTF8
  45. Codec ID/Info : UTF-8 Plain Text
  46. Duration : 1 h 31 min
  47. Bit rate : 77 b/s
  48. Count of elements : 1686
  49. Stream size : 51.8 KiB (0%)
  50. Title : English
  51. Language : English
  52. Default : No
  53. Forced : No

  54. Text #2
  55. ID : 4
  56. Format : UTF-8
  57. Codec ID : S_TEXT/UTF8
  58. Codec ID/Info : UTF-8 Plain Text
  59. Duration : 1 h 31 min
  60. Bit rate : 74 b/s
  61. Count of elements : 1687
  62. Stream size : 49.9 KiB (0%)
  63. Title : Spanish
  64. Language : Spanish
  65. Default : No
  66. Forced : No
复制代码

Changing.the.Game.2019.2160p.WEB.h265.4k纪录片下载

Changing.the.Game.2019.2160p.WEB.h265【9.30GB】
Changing.the.Game.2019.2160p.WEB.h265-OPUS.torrent (47.16 KB)
回复

使用道具 举报

全部回复12

yangly 发表于 2021-6-2 09:49:49

yangly 2

2021-6-2 09:49:49


感谢楼主!
回复 支持 反对

使用道具 举报

liyun80000 发表于 2021-6-2 16:11:10

liyun80000 3

2021-6-2 16:11:10

谢谢楼主分享
回复 支持 反对

使用道具 举报

wybinhua 发表于 2021-6-2 22:33:06

wybinhua 4

2021-6-2 22:33:06

谢谢楼主分享
回复 支持 反对

使用道具 举报

kltan9988 发表于 2021-6-3 00:02:16

kltan9988 5

2021-6-3 00:02:16

感谢楼主!
回复 支持 反对

使用道具 举报

月光麦田 发表于 2021-6-3 14:19:07

月光麦田 6

2021-6-3 14:19:07

谢谢分享
回复 支持 反对

使用道具 举报

xxw8888 发表于 2021-6-3 15:17:15 Hao4K手机版

xxw8888 7

2021-6-3 15:17:15

感谢分享好片
回复 支持 反对

使用道具 举报

affece 发表于 2021-6-4 09:53:11

affece 8

2021-6-4 09:53:11


谢谢楼主分享
回复 支持 反对

使用道具 举报

mazeg 发表于 2021-6-5 09:17:35

mazeg 9

2021-6-5 09:17:35

纪录片别错过。
回复 支持 反对

使用道具 举报

mo814876560 发表于 2021-6-5 09:31:20

mo814876560 10

2021-6-5 09:31:20

感谢楼主分享!
回复 支持 反对

使用道具 举报

deeper2021 发表于 2021-6-6 21:24:52

deeper2021 11

2021-6-6 21:24:52

纪录片,灵的
回复 支持 反对

使用道具 举报

cdyangjun2019 发表于 2021-6-8 10:13:18

cdyangjun2019 12

2021-6-8 10:13:18

很不错的纪录片,谢谢分享
回复 支持 反对

使用道具 举报

56789trewq 发表于 2021-6-9 14:41:16

56789trewq 13

2021-6-9 14:41:16

感謝樓主分享好電影,希望以後還能繼續看到更多的資源!
回复 支持 反对

使用道具 举报

   发表回复

您需要登录后才可以回帖 登录 | 立即注册

返回列表 本版积分规则

  • 在线客服

  • 返回顶部