微博 微信

Hao4K影音

电影频道
电影封面:
片  名: 地平线4k
电影分类: 惊悚 灾难 
国  家: 美国 其他 
年  代: 2020年
分 辨 率: 4K(3840x2160)
电影格式: MKV|REMUX 
画质标准: HDR 10+ 
音质编码: DTS-HD Master Audio 
电影声道: 5.1声道 
帧数/FPS: 23.976 帧
电影语言: 英文原版 
资源大小: 12.54 GB
导  演: 米凯尔·马奇曼
豆瓣评分: 5.7 分
中文字幕: -
剧情简介: 故事讲述一对情侣坐小飞机去岛屿上参加婚礼,在离开小岛时飞行员不幸突发心脏病,俩人得想办法活下来。
空中谜航(台)/地平线4k  Horizon.Line.2020.2160p.AMZN.WEB-DL.x265.10bit.HDR10Plus.DTS-HD.MA.5.1-4k电影信息
  1. Video
  2. ID : 1
  3. Format : HEVC
  4. Format/Info : High Efficiency Video Coding
  5. Format profile : Main 10@L5@Main
  6. HDR format : SMPTE ST 2094 App 4, Version 1, HDR10+ Profile B compatible
  7. Codec ID : V_MPEGH/ISO/HEVC
  8. Duration : 1 h 31 min
  9. Bit rate : 14.9 Mb/s
  10. Width : 3 840 pixels
  11. Height : 1 600 pixels
  12. Display aspect ratio : 2.40:1
  13. Frame rate mode : Constant
  14. Frame rate : 23.976 (24000/1001) FPS
  15. Color space : YUV
  16. Chroma subsampling : 4:2:0
  17. Bit depth : 10 bits
  18. Bits/(Pixel*Frame) : 0.101
  19. Stream size : 9.53 GiB (76%)
  20. Default : Yes
  21. Forced : No
  22. Color range : Limited
  23. Color primaries : BT.2020
  24. Transfer characteristics : PQ
  25. Matrix coefficients : BT.2020 non-constant
  26. Mastering display color primaries : Display P3
  27. Mastering display luminance : min: 0.0001 cd/m2, max: 1000 cd/m2
  28. Maximum Content Light Level : 788 cd/m2
  29. Maximum Frame-Average Light Level : 740 cd/m2

  30. Audio #1
  31. ID : 2
  32. ID in the original source medium : 4352 (0x1100)
  33. Format : DTS XLL
  34. Format/Info : Digital Theater Systems
  35. Commercial name : DTS-HD Master Audio
  36. Codec ID : A_DTS
  37. Duration : 1 h 31 min
  38. Bit rate mode : Variable
  39. Bit rate : 4 055 kb/s
  40. Channel(s) : 6 channels
  41. Channel layout : C L R Ls Rs LFE
  42. Sampling rate : 48.0 kHz
  43. Frame rate : 93.750 FPS (512 SPF)
  44. Bit depth : 24 bits
  45. Compression mode : Lossless
  46. Delay relative to video : 5 ms
  47. Stream size : 2.60 GiB (21%)
  48. Title : DTS-HD MA 5.1
  49. Language : English
  50. Default : Yes
  51. Forced : No
  52. Original source medium : Blu-ray

  53. Audio #2
  54. ID : 3
  55. Format : E-AC-3
  56. Format/Info : Enhanced AC-3
  57. Commercial name : Dolby Digital Plus
  58. Codec ID : A_EAC3
  59. Duration : 1 h 31 min
  60. Bit rate mode : Constant
  61. Bit rate : 640 kb/s
  62. Channel(s) : 6 channels
  63. Channel layout : L R C LFE Ls Rs
  64. Sampling rate : 48.0 kHz
  65. Frame rate : 31.250 FPS (1536 SPF)
  66. Compression mode : Lossy
  67. Stream size : 420 MiB (3%)
  68. Title : DDP 5.1
  69. Language : English
  70. Service kind : Complete Main
  71. Default : No
  72. Forced : No

  73. Text #1
  74. ID : 4
  75. Format : UTF-8
  76. Codec ID : S_TEXT/UTF8
  77. Codec ID/Info : UTF-8 Plain Text
  78. Duration : 1 h 25 min
  79. Bit rate : 50 b/s
  80. Count of elements : 1101
  81. Stream size : 31.3 KiB (0%)
  82. Language : English
  83. Default : Yes
  84. Forced : No

  85. Text #2
  86. ID : 5
  87. Format : UTF-8
  88. Codec ID : S_TEXT/UTF8
  89. Codec ID/Info : UTF-8 Plain Text
  90. Duration : 1 h 30 min
  91. Bit rate : 41 b/s
  92. Count of elements : 958
  93. Stream size : 27.6 KiB (0%)
  94. Language : Spanish
  95. Default : No
  96. Forced : No

  97. Text #3
  98. ID : 6
  99. Format : UTF-8
  100. Codec ID : S_TEXT/UTF8
  101. Codec ID/Info : UTF-8 Plain Text
  102. Duration : 1 h 21 min
  103. Bit rate : 40 b/s
  104. Count of elements : 831
  105. Stream size : 24.2 KiB (0%)
  106. Language : Spanish
  107. Default : No
  108. Forced : No

  109. Text #4
  110. ID : 7
  111. Format : UTF-8
  112. Codec ID : S_TEXT/UTF8
  113. Codec ID/Info : UTF-8 Plain Text
  114. Duration : 1 h 20 min
  115. Bit rate : 35 b/s
  116. Count of elements : 674
  117. Stream size : 20.9 KiB (0%)
  118. Language : French
  119. Default : No
  120. Forced : No

  121. Text #5
  122. ID : 8
  123. Format : UTF-8
  124. Codec ID : S_TEXT/UTF8
  125. Codec ID/Info : UTF-8 Plain Text
  126. Duration : 1 h 20 min
  127. Bit rate : 32 b/s
  128. Count of elements : 565
  129. Stream size : 19.5 KiB (0%)
  130. Language : Dutch
  131. Default : No
  132. Forced : No

  133. Text #6
  134. ID : 9
  135. Format : UTF-8
  136. Codec ID : S_TEXT/UTF8
  137. Codec ID/Info : UTF-8 Plain Text
  138. Duration : 1 h 30 min
  139. Bit rate : 41 b/s
  140. Count of elements : 917
  141. Stream size : 27.3 KiB (0%)
  142. Language : Portuguese
  143. Default : No
  144. Forced : No

  145. Text #7
  146. ID : 10
  147. Format : UTF-8
  148. Codec ID : S_TEXT/UTF8
  149. Codec ID/Info : UTF-8 Plain Text
  150. Duration : 1 h 30 min
  151. Bit rate : 35 b/s
  152. Count of elements : 884
  153. Stream size : 23.7 KiB (0%)
  154. Language : Portuguese
  155. Default : No
  156. Forced : No

  157. Menu
  158. 00:00:00.000 : Amazon Original
  159. 00:00:06.000 : Studio Logo
  160. 00:01:07.000 : Title Sequence
  161. 00:01:17.000 : Fun time in videos
  162. 00:04:43.000 : London
  163. 00:05:30.000 : Mauritius
  164. 00:08:16.000 : Waterfall basin
  165. 00:09:08.000 : Sara loves Mauritius
  166. 00:11:29.000 : Sara is at the beach
  167. 00:13:11.000 : Sara follows Jackson
  168. 00:14:24.000 : Sara has a drink with Jackson
  169. 00:17:38.000 : Sara wakes up in the morning
  170. 00:18:34.000 : Pascale calls Sara
  171. 00:19:14.000 : Sara needs a ride
  172. 00:22:23.000 : Freddy misses his wife
  173. 00:25:32.000 : Sara asks for a help
  174. 00:31:38.000 : Sara finds a storm
  175. 00:36:15.000 : Heading to the west
  176. 00:38:25.000 : Sara faints
  177. 00:42:05.000 : Fuel becomes low
  178. 00:49:30.000 : Jackson gets back inside
  179. 00:53:07.000 : needs to be lighter
  180. 00:57:52.000 : Needs the fuel
  181. 01:04:15.000 : It works
  182. 01:08:03.000 : Sara apologizes
  183. 01:10:43.000 : Finds a land
  184. 01:12:18.000 : Under the sea
  185. 01:15:07.000 : Sara finds out Jackson
  186. 01:16:41.000 : The sandbar
  187. 01:18:08.000 : Sara cries
  188. 01:22:15.000 : No more goodbyes
  189. 01:23:27.000 : End Credits
复制代码


空中谜航(台)/地平线4k  Horizon.Line.2020.2160p.AMZN.WEB-DL.x265.10bit.HDR10Plus.DTS-HD.MA.5.1-4k电影下载

地平线4k  Horizon.Line.2020.2160p.AMZN.WEB-DL.x265.10bit.HDR10Plus.DTS-HD.MA.5.1【12.54GB】
[Hao4k]地平线4k Horizon.Line.2020.2160p.AMZN.WEB-DL.x265.10bit.HDR10Plus.DTS-HD..torrent (63.39 KB)
分享到:  QQ好友和群QQ好友和群
回复

使用道具 举报

全部回复92

2
lhgctt 发表于 2021-6-7 10:29:12

lhgctt 2

2021-6-7 10:29:12

谢谢分享辛苦了
回复 支持 1 反对 0

使用道具 举报

3
sgflshu 发表于 2021-6-7 11:22:28

sgflshu 3

2021-6-7 11:22:28

感谢楼主分享
回复 支持 反对

使用道具 举报

4
Obama_J 发表于 2021-6-7 13:22:09

Obama_J 4

2021-6-7 13:22:09

感谢分享
回复 支持 反对

使用道具 举报

5
Mathk 发表于 2021-6-7 13:34:15

Mathk 5

2021-6-7 13:34:15

Thanks  a   lots  ................  !!!
回复 支持 反对

使用道具 举报

6
jorvie 发表于 2021-6-7 16:29:20

jorvie 6

2021-6-7 16:29:20

感谢分享!
回复 支持 反对

使用道具 举报

7
来杯威士忌 发表于 2021-6-7 16:36:12

来杯威士忌 7

2021-6-7 16:36:12

谢谢了  谢谢分享
回复 支持 反对

使用道具 举报

8
windace 发表于 2021-6-7 16:48:54

windace 8

2021-6-7 16:48:54

看过了,挺好的,稍微有点扯,最后合家欢
回复 支持 反对

使用道具 举报

9
xingyun 发表于 2021-6-7 17:14:16

xingyun 9

2021-6-7 17:14:16

看起来剧情不错,下一个看看
回复 支持 反对

使用道具 举报

10
liyun80000 发表于 2021-6-7 17:57:25

liyun80000 10

2021-6-7 17:57:25

谢谢楼主分享
回复 支持 反对

使用道具 举报

11
凯x因素 发表于 2021-6-7 18:23:57

凯x因素 11

2021-6-7 18:23:57

支持l谢谢分享啦
回复 支持 反对

使用道具 举报

12
lqsong 发表于 2021-6-7 19:13:59

lqsong 12

2021-6-7 19:13:59

谢谢分享
回复 支持 反对

使用道具 举报

13
情深缘浅 发表于 2021-6-7 19:22:30

情深缘浅 13

2021-6-7 19:22:30

好看吗
回复 支持 反对

使用道具 举报

14
myc116 发表于 2021-6-7 19:51:39

myc116 14

2021-6-7 19:51:39

感谢,应该不错
回复 支持 反对

使用道具 举报

15
navyme 发表于 2021-6-7 19:53:36

navyme 15

2021-6-7 19:53:36

影片里面有字母吗?我看上面标注的英文原版!
回复 支持 反对

使用道具 举报

16
农夫舅舅 发表于 2021-6-7 20:02:33

农夫舅舅 16

2021-6-7 20:02:33

评分不眨地,看看在说,说不定很好看哈哈
回复 支持 反对

使用道具 举报

17
z0987 发表于 2021-6-7 20:15:22

z0987 17

2021-6-7 20:15:22

感謝大大分享
回复 支持 反对

使用道具 举报

18
zdm66 发表于 2021-6-7 20:44:31

zdm66 18

2021-6-7 20:44:31

不错的电影,谢谢楼主分享。
回复 支持 反对

使用道具 举报

   发表回复

您需要登录后才可以回帖 登录 | 立即注册

返回列表 本版积分规则

关闭

站内通知上一条 /1 下一条

  • 在线客服

  • 返回顶部