微博 微信

Hao4K影音

电影频道
电影封面:
片  名: 占水师4k
电影分类: 战争 剧情 
国  家: 美国 其他 
年  代: 2014年
分 辨 率: 4K(3840x2160)
电影格式: MKV|REMUX 
画质标准: SDR 
音质编码: DTS-HD Master Audio 
电影声道: 5.1声道 
帧数/FPS: 23.976 帧
电影语言: 英文原版 
资源大小: 13.35 GB
导  演: 罗素·克劳
豆瓣评分: 6.9 分
中文字幕: /thread-58903-1-1.html
剧情简介:  一名在澳洲以农为业的的占水师康纳(罗素·克劳 Russell Crowe 饰)在第一次世界大战加里波利战役后前往土耳其伊斯坦堡,试图寻找他三个参战阵亡儿子的遗骸。即使一开始遭到军方的百般阻挠,他也不屈不挠,更遇到于伊斯坦堡入住旅馆女主人爱莎(欧嘉·柯瑞兰寇 Olga Kurylenko 饰)及一名曾与他儿子对战的土耳其军官出手协助。康纳抓住一丝希望,为查出真相,穿越饱受战火蹂躏的土地,九死一生,只为寻回儿子阵亡的真相,了结自己及妻子的心愿……
战火情天(港) / 伊斯坦堡救援(台) / 寻水之人 / 觅水者 / 水占卜师/占水师4k The.Water.Diviner.2014.2160p.WEB-DL.x265.8bit.SDR.DTS-HD.MA.5.1-4k电影信息
  1. Video
  2. ID : 1
  3. Format : HEVC
  4. Format/Info : High Efficiency Video Coding
  5. Format profile : Main@L5@High
  6. Codec ID : V_MPEGH/ISO/HEVC
  7. Duration : 1 h 51 min
  8. Bit rate : 14.8 Mb/s
  9. Width : 3 840 pixels
  10. Height : 2 160 pixels
  11. Display aspect ratio : 16:9
  12. Frame rate mode : Constant
  13. Frame rate : 23.976 (24000/1001) FPS
  14. Color space : YUV
  15. Chroma subsampling : 4:2:0
  16. Bit depth : 8 bits
  17. Bits/(Pixel*Frame) : 0.074
  18. Stream size : 11.5 GiB (86%)
  19. Default : Yes
  20. Forced : No
  21. Color range : Limited
  22. Color primaries : BT.709
  23. Transfer characteristics : BT.709
  24. Matrix coefficients : BT.709

  25. Audio #1
  26. ID : 2
  27. ID in the original source medium : 4352 (0x1100)
  28. Format : DTS XLL
  29. Format/Info : Digital Theater Systems
  30. Commercial name : DTS-HD Master Audio
  31. Codec ID : A_DTS
  32. Duration : 1 h 51 min
  33. Bit rate mode : Variable
  34. Bit rate : 1 906 kb/s
  35. Channel(s) : 6 channels
  36. Channel layout : C L R Ls Rs LFE
  37. Sampling rate : 48.0 kHz
  38. Frame rate : 93.750 FPS (512 SPF)
  39. Bit depth : 16 bits
  40. Compression mode : Lossless
  41. Delay relative to video : 24 s 400 ms
  42. Stream size : 1.48 GiB (11%)
  43. Title : DTS-HD MA 5.1
  44. Language : English
  45. Default : Yes
  46. Forced : No
  47. Original source medium : Blu-ray

  48. Audio #2
  49. ID : 3
  50. Format : AAC LC
  51. Format/Info : Advanced Audio Codec Low Complexity
  52. Codec ID : A_AAC-2
  53. Duration : 1 h 51 min
  54. Bit rate : 445 kb/s
  55. Channel(s) : 6 channels
  56. Channel layout : C L R Ls Rs LFE
  57. Sampling rate : 48.0 kHz
  58. Frame rate : 46.875 FPS (1024 SPF)
  59. Compression mode : Lossy
  60. Stream size : 356 MiB (3%)
  61. Title : AAC 5.1
  62. Language : English
  63. Default : No
  64. Forced : No

  65. Text
  66. ID : 4
  67. Format : UTF-8
  68. Codec ID : S_TEXT/UTF8
  69. Codec ID/Info : UTF-8 Plain Text
  70. Duration : 1 h 50 min
  71. Bit rate : 36 b/s
  72. Count of elements : 1170
  73. Stream size : 29.7 KiB (0%)
  74. Language : English
  75. Default : Yes
  76. Forced : No
复制代码

战火情天(港) / 伊斯坦堡救援(台) / 寻水之人 / 觅水者 / 水占卜师/占水师4k The.Water.Diviner.2014.2160p.WEB-DL.x265.8bit.SDR.DTS-HD.MA.5.1-4k电影下载

占水师4k The.Water.Diviner.2014.2160p.WEB-DL.x265.8bit.SDR.DTS-HD.MA.5.1【13.35GB】
[Hao4k]占水师4k The.Water.Diviner.2014.2160p.WEB-DL.x265.8bit.SDR.DTS-HD.MA.5.1-.torrent (67.43 KB)
回复

使用道具 举报

全部回复30

ExtremeDS 发表于 2021-6-28 08:06:12

ExtremeDS 2

2021-6-28 08:06:12

图片错了吗?
回复 支持 反对

使用道具 举报

56789trewq 发表于 2021-6-28 09:12:03

56789trewq 3

2021-6-28 09:12:03

感謝樓主分享好電影,希望以後還能繼續看到更多的資源!
回复 支持 反对

使用道具 举报

yangly 发表于 2021-6-28 10:01:29 Hao4K手机版

yangly 4

2021-6-28 10:01:29

谢分享好片
回复 支持 反对

使用道具 举报

老弟 发表于 2021-6-28 10:05:53 Hao4K手机版

老弟 5

2021-6-28 10:05:53

这片子好看吗
回复 支持 反对

使用道具 举报

zdm66 发表于 2021-6-28 11:05:01

zdm66 6

2021-6-28 11:05:01

非常不错的电影,谢谢楼主分享。
回复 支持 反对

使用道具 举报

dvd752 发表于 2021-6-28 12:13:54

dvd752 7

2021-6-28 12:13:54

早就看过这片,很感人。罗素表演精湛。资源不容易找到,赶紧下。谢谢分享。
回复 支持 反对

使用道具 举报

yxk007 发表于 2021-6-28 12:30:44

yxk007 8

2021-6-28 12:30:44


谢分享好片
回复 支持 反对

使用道具 举报

aaaamonster 发表于 2021-6-28 17:06:46

aaaamonster 9

2021-6-28 17:06:46



谢谢楼主分享 等我有币试试
回复 支持 反对

使用道具 举报

rickyqinwq 发表于 2021-6-28 20:07:31

rickyqinwq 10

2021-6-28 20:07:31

thx for sharing !
回复 支持 反对

使用道具 举报

xxw8888 发表于 2021-6-28 20:29:38

xxw8888 11

2021-6-28 20:29:38

谢谢楼主分享!
回复 支持 反对

使用道具 举报

gwz_4 发表于 2021-6-28 21:03:39

gwz_4 12

2021-6-28 21:03:39



谢分享好片
回复 支持 反对

使用道具 举报

dqxa 发表于 2021-6-28 21:05:23

dqxa 13

2021-6-28 21:05:23

视频与音频不匹配?
回复 支持 反对

使用道具 举报

lidabo2021 发表于 2021-6-29 00:04:32 Hao4K手机版

lidabo2021 14

2021-6-29 00:04:32

感谢分享好影片
回复 支持 反对

使用道具 举报

df5222333 发表于 2021-6-29 10:32:25

df5222333 15

2021-6-29 10:32:25

谢谢楼主分享
回复 支持 反对

使用道具 举报

yxk007 发表于 2021-6-29 10:46:35

yxk007 16

2021-6-29 10:46:35

求同步的字幕
回复 支持 反对

使用道具 举报

sacdhao 发表于 2021-6-29 11:03:34

sacdhao 17

2021-6-29 11:03:34

有点西部牛仔风格么
回复 支持 反对

使用道具 举报

lqy0500 发表于 2021-6-29 13:09:45

lqy0500 18

2021-6-29 13:09:45

感谢分享
回复 支持 反对

使用道具 举报

   发表回复

您需要登录后才可以回帖 登录 | 立即注册

返回列表 本版积分规则

  • 在线客服

  • 返回顶部