微博 微信

Hao4K影音

电影频道
电影封面:
片  名: 情敌复仇战4k
电影分类: 喜剧 
国  家: 美国 
年  代: 2014年
分 辨 率: 4K(3840x2160)
电影格式: MKV|REMUX 
画质标准: SDR 
音质编码: DTS-HD Master Audio 
电影声道: 5.1声道 
帧数/FPS: 23.976 帧
电影语言: 英文原版 
资源大小: 14.65 GB
导  演: 尼克·卡萨维蒂
豆瓣评分: 6.5 分
中文字幕: /thread-58940-1-1.html
剧情简介:  卡莉(卡梅隆·迪亚茨 Cameron Diaz 饰)是一位精明强干的律师,无论对于生活还是男人,她所要求的无疑都是最好和最完美的。一次偶然中,卡莉结识了名叫马克(尼可拉·科斯特-瓦尔道 Nikolaj Coster-Waldau 饰)的男子,后者的英俊和潇洒立刻就吸引了卡莉的注意,没过多久,两人就坠入了爱河。
  为了给马克一个惊喜,卡莉瞒着他来到了他的家乡,让卡莉没有想到的是,在这里迎接她的,竟然是一个自称是马克妻子的女人凯特(莱斯利·曼恩 Leslie Mann 饰),而凯特对于卡莉的存在亦是一无所知。直到这时,卡莉才开始渐渐看清马克的真实面目,她和凯特决定联手,将其揭穿。之后,一个名为艾伯(凯特·阿普顿 Kate Upton 饰)的女人加入了她们,三个女人联合在一起,好戏即将上演。
小三大联盟(港) / 妇仇者联盟(台)/情敌复仇战4k The.Other.Woman.2014.2160p.AMZN.WEB-DL.x265.8bit.SDR.DTS-HD.MA.5.1-4k电影信息
  1. Video
  2. ID : 1
  3. Format : HEVC
  4. Format/Info : High Efficiency Video Coding
  5. Format profile : Main@L5@Main
  6. Codec ID : V_MPEGH/ISO/HEVC
  7. Duration : 1 h 49 min
  8. Bit rate : 14.9 Mb/s
  9. Width : 3 840 pixels
  10. Height : 1 600 pixels
  11. Display aspect ratio : 2.40:1
  12. Frame rate mode : Constant
  13. Frame rate : 23.976 (24000/1001) FPS
  14. Color space : YUV
  15. Chroma subsampling : 4:2:0
  16. Bit depth : 8 bits
  17. Bits/(Pixel*Frame) : 0.101
  18. Stream size : 11.4 GiB (78%)
  19. Default : Yes
  20. Forced : No
  21. Color range : Limited
  22. Color primaries : BT.709
  23. Transfer characteristics : BT.709
  24. Matrix coefficients : BT.709

  25. Audio #1
  26. ID : 2
  27. Format : DTS XLL
  28. Format/Info : Digital Theater Systems
  29. Commercial name : DTS-HD Master Audio
  30. Codec ID : A_DTS
  31. Duration : 1 h 49 min
  32. Bit rate mode : Variable
  33. Bit rate : 3 630 kb/s
  34. Channel(s) : 6 channels
  35. Channel layout : C L R Ls Rs LFE
  36. Sampling rate : 48.0 kHz
  37. Frame rate : 93.750 FPS (512 SPF)
  38. Bit depth : 24 bits
  39. Compression mode : Lossless
  40. Stream size : 2.77 GiB (19%)
  41. Title : DTS-HD MA 5.1
  42. Language : English
  43. Default : Yes
  44. Forced : No

  45. Audio #2
  46. ID : 3
  47. Format : E-AC-3
  48. Format/Info : Enhanced AC-3
  49. Commercial name : Dolby Digital Plus
  50. Codec ID : A_EAC3
  51. Duration : 1 h 49 min
  52. Bit rate mode : Constant
  53. Bit rate : 640 kb/s
  54. Channel(s) : 6 channels
  55. Channel layout : L R C LFE Ls Rs
  56. Sampling rate : 48.0 kHz
  57. Frame rate : 31.250 FPS (1536 SPF)
  58. Compression mode : Lossy
  59. Stream size : 500 MiB (3%)
  60. Title : DDP 5.1
  61. Language : English
  62. Service kind : Complete Main
  63. Default : No
  64. Forced : No

  65. Text #1
  66. ID : 4
  67. Format : UTF-8
  68. Codec ID : S_TEXT/UTF8
  69. Codec ID/Info : UTF-8 Plain Text
  70. Duration : 1 h 42 min
  71. Bit rate : 79 b/s
  72. Count of elements : 1939
  73. Stream size : 59.6 KiB (0%)
  74. Title : SRT
  75. Language : English
  76. Default : Yes
  77. Forced : No

  78. Text #2
  79. ID : 5
  80. Format : PGS
  81. Muxing mode : zlib
  82. Codec ID : S_HDMV/PGS
  83. Codec ID/Info : Picture based subtitle format used on BDs/HD-DVDs
  84. Duration : 1 h 42 min
  85. Bit rate : 49.7 kb/s
  86. Count of elements : 3716
  87. Stream size : 36.5 MiB (0%)
  88. Language : English
  89. Default : No
  90. Forced : No

  91. Text #3
  92. ID : 6
  93. Format : PGS
  94. Muxing mode : zlib
  95. Codec ID : S_HDMV/PGS
  96. Codec ID/Info : Picture based subtitle format used on BDs/HD-DVDs
  97. Duration : 1 h 47 min
  98. Bit rate : 366 b/s
  99. Count of elements : 22
  100. Stream size : 290 KiB (0%)
  101. Language : French
  102. Default : No
  103. Forced : No

  104. Text #4
  105. ID : 7
  106. Format : PGS
  107. Muxing mode : zlib
  108. Codec ID : S_HDMV/PGS
  109. Codec ID/Info : Picture based subtitle format used on BDs/HD-DVDs
  110. Duration : 1 h 48 min
  111. Bit rate : 40.7 kb/s
  112. Count of elements : 3022
  113. Stream size : 31.6 MiB (0%)
  114. Language : Spanish
  115. Default : No
  116. Forced : No

  117. Menu
  118. 00:00:00.000 : Chapter 01
  119. 00:03:06.186 : Chapter 02
  120. 00:05:45.262 : Chapter 03
  121. 00:07:21.274 : Chapter 04
  122. 00:10:21.371 : Chapter 05
  123. 00:14:17.231 : Chapter 06
  124. 00:16:45.421 : Chapter 07
  125. 00:19:47.686 : Chapter 08
  126. 00:21:18.444 : Chapter 09
  127. 00:24:01.649 : Chapter 10
  128. 00:28:16.862 : Chapter 11
  129. 00:32:34.035 : Chapter 12
  130. 00:35:41.181 : Chapter 13
  131. 00:39:06.261 : Chapter 14
  132. 00:41:54.804 : Chapter 15
  133. 00:44:53.316 : Chapter 16
  134. 00:48:33.369 : Chapter 17
  135. 00:52:33.192 : Chapter 18
  136. 00:55:54.977 : Chapter 19
  137. 00:58:20.789 : Chapter 20
  138. 01:00:20.909 : Chapter 21
  139. 01:03:18.712 : Chapter 22
  140. 01:08:35.528 : Chapter 23
  141. 01:11:03.551 : Chapter 24
  142. 01:14:28.923 : Chapter 25
  143. 01:17:21.053 : Chapter 26
  144. 01:22:13.137 : Chapter 27
  145. 01:26:42.030 : Chapter 28
  146. 01:30:03.523 : Chapter 29
  147. 01:35:01.696 : Chapter 30
  148. 01:42:25.431 : Chapter 31
  149. 01:44:27.470 : Chapter 32
复制代码

小三大联盟(港) / 妇仇者联盟(台)/情敌复仇战4k The.Other.Woman.2014.2160p.AMZN.WEB-DL.x265.8bit.SDR.DTS-HD.MA.5.1-4k电影下载

情敌复仇战4k The.Other.Woman.2014.2160p.AMZN.WEB-DL.x265.8bit.SDR.DTS-HD.MA.5.1【14.65 GB】
[Hao4k]情敌复仇战4kThe.Other.Woman.2014.2160p.AMZN.WEB-DL.x265.8bit.SDR.DTS-HD.M.torrent (73.91 KB)
回复

使用道具 举报

全部回复13

iris6267 发表于 2021-6-28 08:57:47

iris6267 2

2021-6-28 08:57:47

感谢分享
回复 支持 反对

使用道具 举报

highrpmclub 发表于 2021-6-28 10:30:52

highrpmclub 3

2021-6-28 10:30:52

卡梅隆·迪亚茨真的是老一代美女了,从最开始的动作戏到后来的剧情片,看了不少年
回复 支持 反对

使用道具 举报

xdccc8805 发表于 2021-6-28 11:42:23

xdccc8805 4

2021-6-28 11:42:23

感谢楼主!!!!!!!!!!!!
回复 支持 反对

使用道具 举报

rickyqinwq 发表于 2021-6-28 20:06:54

rickyqinwq 5

2021-6-28 20:06:54

thx for sharing !
回复 支持 反对

使用道具 举报

hhhz 发表于 2021-6-28 20:31:08

hhhz 6

2021-6-28 20:31:08

感谢楼主分享!
回复 支持 反对

使用道具 举报

sacdhao 发表于 2021-6-29 11:01:28

sacdhao 7

2021-6-29 11:01:28


感谢楼主分享123456
回复 支持 反对

使用道具 举报

lub 发表于 2021-6-29 20:27:08

lub 8

2021-6-29 20:27:08

谢分享好片
回复 支持 反对

使用道具 举报

cqcyganzj 发表于 2021-6-30 12:27:38

cqcyganzj 9

2021-6-30 12:27:38

卡梅隆·迪亚茨!三个女人一台戏!
回复 支持 反对

使用道具 举报

les5332295 发表于 2021-6-30 21:58:22

les5332295 10

2021-6-30 21:58:22

卡梅隆·迪亚茨,变相怪杰,惊艳亮相
回复 支持 反对

使用道具 举报

laozihao 发表于 2021-7-3 11:50:43

laozihao 11

2021-7-3 11:50:43

卡梅隆·迪亚茨演技超赞
回复 支持 反对

使用道具 举报

BORA1.6 发表于 2021-7-4 16:42:43

BORA1.6 12

2021-7-4 16:42:43


感谢楼主分享!
回复 支持 反对

使用道具 举报

goodmanbadman 发表于 2021-7-4 18:43:10

goodmanbadman 13

2021-7-4 18:43:10

感谢楼主分享!
回复 支持 反对

使用道具 举报

   发表回复

您需要登录后才可以回帖 登录 | 立即注册

返回列表 本版积分规则

  • 在线客服

  • 返回顶部