微博 微信

Hao4K影音

电影频道
电影封面:
片  名: 吓唬我们4k
电影分类: 惊悚 
国  家: 美国 
年  代: 2021年
分 辨 率: 4K(3840x2160)
电影格式: MKV|REMUX 
画质标准: SDR 
音质编码: Dolby Digital Audio 
电影声道: 5.1声道 
帧数/FPS: 23.976 帧
电影语言: 英文原版 
资源大小: 8.32 GB
导  演: 卡尔詹森四世
豆瓣评分: 4.5 分
中文字幕: -
剧情简介: 本令人毛骨悚然的恐怖文集,由五个短篇小说组成,由一群不太可能有抱负的作家撰写,位于舒格顿 - 一个被臭名昭著的连环杀手明显回归困扰的小镇,被称为“Cutthroat”。他们来分享他们的恐怖故事(与彼此以及领导小组的书店老板彼得),但很快发现他们已成为一个生病的杀手自己扭曲故事的明星。
吓唬我们4k Scare.Us.2021.2160p.WEB-DL.x265.10bit.SDR.DD5.1-4k电影信息
  1. Video
  2. ID : 1
  3. Format : HEVC
  4. Format/Info : High Efficiency Video Coding
  5. Format profile : Main 10@L5@High
  6. Codec ID : V_MPEGH/ISO/HEVC
  7. Duration : 1 h 36 min
  8. Bit rate : 11.9 Mb/s
  9. Width : 3 836 pixels
  10. Height : 1 600 pixels
  11. Display aspect ratio : 2.40:1
  12. Original display aspect ratio : 2.40:1
  13. Frame rate mode : Constant
  14. Frame rate : 23.976 FPS
  15. Color space : YUV
  16. Chroma subsampling : 4:2:0
  17. Bit depth : 10 bits
  18. Bits/(Pixel*Frame) : 0.081
  19. Stream size : 8.06 GiB (97%)
  20. Language : English
  21. Default : Yes
  22. Forced : No
  23. Color range : Limited
  24. Color primaries : BT.709
  25. Transfer characteristics : BT.709
  26. Matrix coefficients : BT.709

  27. Audio
  28. ID : 2
  29. Format : AC-3
  30. Format/Info : Audio Coding 3
  31. Commercial name : Dolby Digital
  32. Codec ID : A_AC3
  33. Duration : 1 h 36 min
  34. Bit rate mode : Constant
  35. Bit rate : 384 kb/s
  36. Channel(s) : 6 channels
  37. Channel layout : L R C LFE Ls Rs
  38. Sampling rate : 48.0 kHz
  39. Frame rate : 31.250 FPS (1536 SPF)
  40. Compression mode : Lossy
  41. Stream size : 266 MiB (3%)
  42. Language : English
  43. Service kind : Complete Main
  44. Default : Yes
  45. Forced : No

  46. Text
  47. ID : 3
  48. Format : UTF-8
  49. Codec ID : S_TEXT/UTF8
  50. Codec ID/Info : UTF-8 Plain Text
  51. Duration : 1 h 29 min
  52. Bit rate : 38 b/s
  53. Count of elements : 1102
  54. Stream size : 25.0 KiB (0%)
  55. Language : English
  56. Default : Yes
  57. Forced : No
复制代码

吓唬我们4k Scare.Us.2021.2160p.WEB-DL.x265.10bit.SDR.DD5.1-4k电影下载

吓唬我们4k Scare.Us.2021.2160p.WEB-DL.x265.10bit.SDR.DD5.1【8.32GB】
[Hao4k]吓唬我们4k Scare.Us.2021.2160p.WEB-DL.x265.10bit.SDR.DD5.1-NOGRP.torrent (42.24 KB)
回复

使用道具 举报

全部回复12

hhhz 发表于 2021-6-29 19:21:22

hhhz 2

2021-6-29 19:21:22

封面挺唬人。
回复 支持 反对

使用道具 举报

jerryxg 发表于 2021-6-29 19:51:30

jerryxg 3

2021-6-29 19:51:30

片名没听过,下来看看
回复 支持 反对

使用道具 举报

梁jiujiu 发表于 2021-6-29 22:07:09

梁jiujiu 4

2021-6-29 22:07:09

百度也搜不出来 啥电影
回复 支持 反对

使用道具 举报

nihan2834 发表于 2021-6-29 22:59:45

nihan2834 5

2021-6-29 22:59:45

希望好看点~!!!!!
回复 支持 反对

使用道具 举报

xxw8888 发表于 2021-6-29 23:54:33 Hao4K手机版

xxw8888 6

2021-6-29 23:54:33

恐怖分子吓人
回复 支持 反对

使用道具 举报

dk30129 发表于 2021-6-30 08:59:37

dk30129 7

2021-6-30 08:59:37

谢谢分享,顶你!!!
回复 支持 反对

使用道具 举报

世爵39 发表于 2021-6-30 09:23:24

世爵39 8

2021-6-30 09:23:24

这套恐怖片有什么不同??
回复 支持 反对

使用道具 举报

jml32370 发表于 2021-7-1 00:53:57

jml32370 9

2021-7-1 00:53:57

有中文字幕的吗?
回复 支持 反对

使用道具 举报

世爵39 发表于 2021-7-1 08:15:18

世爵39 10

2021-7-1 08:15:18

这是恐怖片吗???
回复 支持 反对

使用道具 举报

zwx911 发表于 2021-7-1 08:28:19

zwx911 11

2021-7-1 08:28:19

有中文字幕的吗?2
回复 支持 反对

使用道具 举报

zwx911 发表于 2021-7-1 08:29:09

zwx911 12

2021-7-1 08:29:09

有中文字幕下载吗?
回复 支持 反对

使用道具 举报

hyde288 发表于 2021-7-9 18:21:40

hyde288 13

2021-7-9 18:21:40

感觉还不错哦!不知道内容精不精彩!
回复 支持 反对

使用道具 举报

   发表回复

您需要登录后才可以回帖 登录 | 立即注册

返回列表 本版积分规则

  • 在线客服

  • 返回顶部